  0
SECTION
  2
HEADER
  9
$ACADVER
  1
AC1018
  9
$ACADMAINTVER
 70
   104
  9
$DWGCODEPAGE
  3
ANSI_1252
  9
$LASTSAVEDBY
  1
jgayle
  9
$INSBASE
 10
0.0
 20
0.0
 30
0.0
  9
$EXTMIN
 10
-237.2170399406245
 20
-248.9412782855712
 30
0.0
  9
$EXTMAX
 10
-212.2170399406245
 20
-226.3332866557505
 30
0.0
  9
$LIMMIN
 10
-241.0134731381112
 20
-250.8588975223246
  9
$LIMMAX
 10
-206.9507612424345
 20
-223.3902354165009
  9
$ORTHOMODE
 70
     1
  9
$REGENMODE
 70
     1
  9
$FILLMODE
 70
     1
  9
$QTEXTMODE
 70
     0
  9
$MIRRTEXT
 70
     1
  9
$LTSCALE
 40
1.0
  9
$ATTMODE
 70
     1
  9
$TEXTSIZE
 40
0.2
  9
$TRACEWID
 40
0.05
  9
$TEXTSTYLE
  7
STANDARD
  9
$CLAYER
  8
0
  9
$CELTYPE
  6
CONTINUOUS
  9
$CECOLOR
 62
     7
  9
$CELTSCALE
 40
1.0
  9
$DISPSILH
 70
     0
  9
$DIMSCALE
 40
1.0
  9
$DIMASZ
 40
0.35
  9
$DIMEXO
 40
0.1
  9
$DIMDLI
 40
20.0
  9
$DIMRND
 40
0.0
  9
$DIMDLE
 40
0.0
  9
$DIMEXE
 40
0.0999999999999996
  9
$DIMTP
 40
0.0
  9
$DIMTM
 40
0.0
  9
$DIMTXT
 40
0.15
  9
$DIMCEN
 40
2.0
  9
$DIMTSZ
 40
0.0
  9
$DIMTOL
 70
     0
  9
$DIMLIM
 70
     0
  9
$DIMTIH
 70
     1
  9
$DIMTOH
 70
     1
  9
$DIMSE1
 70
     0
  9
$DIMSE2
 70
     0
  9
$DIMTAD
 70
     1
  9
$DIMZIN
 70
     0
  9
$DIMBLK
  1

  9
$DIMASO
 70
     1
  9
$DIMSHO
 70
     1
  9
$DIMPOST
  1
"
  9
$DIMAPOST
  1
mm
  9
$DIMALT
 70
     1
  9
$DIMALTD
 70
     0
  9
$DIMALTF
 40
25.4
  9
$DIMLFAC
 40
1.0
  9
$DIMTOFL
 70
     0
  9
$DIMTVP
 40
0.0
  9
$DIMTIX
 70
     0
  9
$DIMSOXD
 70
     0
  9
$DIMSAH
 70
     0
  9
$DIMBLK1
  1

  9
$DIMBLK2
  1

  9
$DIMSTYLE
  2
COPY_OF_STANDARD
  9
$DIMCLRD
 70
     0
  9
$DIMCLRE
 70
     0
  9
$DIMCLRT
 70
     0
  9
$DIMTFAC
 40
1.0
  9
$DIMGAP
 40
0.05
  9
$DIMJUST
 70
     0
  9
$DIMSD1
 70
     0
  9
$DIMSD2
 70
     0
  9
$DIMTOLJ
 70
     1
  9
$DIMTZIN
 70
     0
  9
$DIMALTZ
 70
     0
  9
$DIMALTTZ
 70
     0
  9
$DIMUPT
 70
     0
  9
$DIMDEC
 70
     3
  9
$DIMTDEC
 70
     3
  9
$DIMALTU
 70
     2
  9
$DIMALTTD
 70
     0
  9
$DIMTXSTY
  7
STANDARD
  9
$DIMAUNIT
 70
     0
  9
$DIMADEC
 70
     0
  9
$DIMALTRND
 40
1.0
  9
$DIMAZIN
 70
     0
  9
$DIMDSEP
 70
    46
  9
$DIMATFIT
 70
     3
  9
$DIMFRAC
 70
     0
  9
$DIMLDRBLK
  1

  9
$DIMLUNIT
 70
     5
  9
$DIMLWD
 70
    -2
  9
$DIMLWE
 70
    -2
  9
$DIMTMOVE
 70
     0
  9
$LUNITS
 70
     2
  9
$LUPREC
 70
     2
  9
$SKETCHINC
 40
0.1
  9
$FILLETRAD
 40
2.125
  9
$AUNITS
 70
     0
  9
$AUPREC
 70
     2
  9
$MENU
  1
acad
  9
$ELEVATION
 40
0.0
  9
$PELEVATION
 40
0.0
  9
$THICKNESS
 40
0.0
  9
$LIMCHECK
 70
     0
  9
$CHAMFERA
 40
0.0
  9
$CHAMFERB
 40
0.0
  9
$CHAMFERC
 40
0.0
  9
$CHAMFERD
 40
0.0
  9
$SKPOLY
 70
     0
  9
$TDCREATE
 40
2450438.601263311
  9
$TDUCREATE
 40
2450438.767929977
  9
$TDUPDATE
 40
2456227.638351968
  9
$TDUUPDATE
 40
2456227.805018634
  9
$TDINDWG
 40
4.5256551852
  9
$TDUSRTIMER
 40
4.5256551852
  9
$USRTIMER
 70
     1
  9
$ANGBASE
 50
0.0
  9
$ANGDIR
 70
     0
  9
$PDMODE
 70
     0
  9
$PDSIZE
 40
0.0
  9
$PLINEWID
 40
0.0
  9
$SPLFRAME
 70
     0
  9
$SPLINETYPE
 70
     6
  9
$SPLINESEGS
 70
     8
  9
$HANDSEED
  5
10379
  9
$SURFTAB1
 70
     6
  9
$SURFTAB2
 70
     6
  9
$SURFTYPE
 70
     6
  9
$SURFU
 70
     6
  9
$SURFV
 70
     6
  9
$UCSBASE
  2

  9
$UCSNAME
  2

  9
$UCSORG
 10
0.0
 20
0.0
 30
0.0
  9
$UCSXDIR
 10
1.0
 20
0.0
 30
0.0
  9
$UCSYDIR
 10
0.0
 20
1.0
 30
0.0
  9
$UCSORTHOREF
  2

  9
$UCSORTHOVIEW
 70
     0
  9
$UCSORGTOP
 10
0.0
 20
0.0
 30
0.0
  9
$UCSORGBOTTOM
 10
0.0
 20
0.0
 30
0.0
  9
$UCSORGLEFT
 10
0.0
 20
0.0
 30
0.0
  9
$UCSORGRIGHT
 10
0.0
 20
0.0
 30
0.0
  9
$UCSORGFRONT
 10
0.0
 20
0.0
 30
0.0
  9
$UCSORGBACK
 10
0.0
 20
0.0
 30
0.0
  9
$PUCSBASE
  2

  9
$PUCSNAME
  2

  9
$PUCSORG
 10
0.0
 20
0.0
 30
0.0
  9
$PUCSXDIR
 10
1.0
 20
0.0
 30
0.0
  9
$PUCSYDIR
 10
0.0
 20
1.0
 30
0.0
  9
$PUCSORTHOREF
  2

  9
$PUCSORTHOVIEW
 70
     0
  9
$PUCSORGTOP
 10
0.0
 20
0.0
 30
0.0
  9
$PUCSORGBOTTOM
 10
0.0
 20
0.0
 30
0.0
  9
$PUCSORGLEFT
 10
0.0
 20
0.0
 30
0.0
  9
$PUCSORGRIGHT
 10
0.0
 20
0.0
 30
0.0
  9
$PUCSORGFRONT
 10
0.0
 20
0.0
 30
0.0
  9
$PUCSORGBACK
 10
0.0
 20
0.0
 30
0.0
  9
$USERI1
 70
     0
  9
$USERI2
 70
     0
  9
$USERI3
 70
     0
  9
$USERI4
 70
     0
  9
$USERI5
 70
     0
  9
$USERR1
 40
0.0
  9
$USERR2
 40
0.0
  9
$USERR3
 40
0.0
  9
$USERR4
 40
0.0
  9
$USERR5
 40
0.0
  9
$WORLDVIEW
 70
     1
  9
$SHADEDGE
 70
     3
  9
$SHADEDIF
 70
    70
  9
$TILEMODE
 70
     1
  9
$MAXACTVP
 70
    16
  9
$PINSBASE
 10
0.0
 20
0.0
 30
0.0
  9
$PLIMCHECK
 70
     0
  9
$PEXTMIN
 10
5.462346885916495
 20
5.101956868577904
 30
0.0
  9
$PEXTMAX
 10
38.56234688591649
 20
28.40195686857789
 30
0.0
  9
$PLIMMIN
 10
0.0
 20
0.0
  9
$PLIMMAX
 10
43.99999903881643
 20
34.00000144177535
  9
$UNITMODE
 70
     0
  9
$VISRETAIN
 70
     0
  9
$PLINEGEN
 70
     0
  9
$PSLTSCALE
 70
     1
  9
$TREEDEPTH
 70
  3020
  9
$CMLSTYLE
  2
STANDARD
  9
$CMLJUST
 70
     0
  9
$CMLSCALE
 40
1.0
  9
$PROXYGRAPHICS
 70
     1
  9
$MEASUREMENT
 70
     0
  9
$CELWEIGHT
370
    -1
  9
$ENDCAPS
280
     0
  9
$JOINSTYLE
280
     0
  9
$LWDISPLAY
290
     1
  9
$INSUNITS
 70
     4
  9
$HYPERLINKBASE
  1

  9
$STYLESHEET
  1

  9
$XEDIT
290
     1
  9
$CEPSNTYPE
380
     0
  9
$PSTYLEMODE
290
     1
  9
$FINGERPRINTGUID
  2
{3DFF78D6-CC7F-11D3-AC06-00A0C98A02AE}
  9
$VERSIONGUID
  2
{17A7EC4B-E378-4493-BB84-B81FF97E6BDB}
  9
$EXTNAMES
290
     1
  9
$PSVPSCALE
 40
0.0
  9
$OLESTARTUP
290
     0
  9
$SORTENTS
280
    96
  9
$INDEXCTL
280
     0
  9
$HIDETEXT
280
     0
  9
$XCLIPFRAME
290
     0
  9
$HALOGAP
280
     0
  9
$OBSCOLOR
 70
   257
  9
$OBSLTYPE
280
     0
  9
$INTERSECTIONDISPLAY
280
     0
  9
$INTERSECTIONCOLOR
 70
   257
  9
$DIMASSOC
280
     1
  9
$PROJECTNAME
  1

  0
ENDSEC
  0
SECTION
  2
CLASSES
  0
CLASS
  1
ACDBDICTIONARYWDFLT
  2
AcDbDictionaryWithDefault
  3
ObjectDBX Classes
 90
        0
 91
        1
280
     0
281
     0
  0
CLASS
  1
DICTIONARYVAR
  2
AcDbDictionaryVar
  3
ObjectDBX Classes
 90
        0
 91
        6
280
     0
281
     0
  0
CLASS
  1
PLOTSETTINGS
  2
AcDbPlotSettings
  3
ObjectDBX Classes
 90
        0
 91
        4
280
     0
281
     0
  0
CLASS
  1
TABLESTYLE
  2
AcDbTableStyle
  3
ObjectDBX Classes
 90
     4095
 91
        1
280
     0
281
     0
  0
CLASS
  1
SORTENTSTABLE
  2
AcDbSortentsTable
  3
ObjectDBX Classes
 90
        0
 91
        4
280
     0
281
     0
  0
CLASS
  1
DIMASSOC
  2
AcDbDimAssoc
  3
"AcDbDimAssoc|Product Desc:     AcDim ARX App For Dimension|Company:          Autodesk, Inc.|WEB Address:      www.autodesk.com"
 90
        0
 91
        0
280
     0
281
     0
  0
CLASS
  1
DBCOLOR
  2
AcDbColor
  3
ObjectDBX Classes
 90
        0
 91
        1
280
     0
281
     0
  0
CLASS
  1
ACAD_EVALUATION_GRAPH
  2
AcDbEvalGraph
  3
ObjectDBX Classes
 90
     1153
 91
        0
280
     0
281
     0
  0
CLASS
  1
ACDB_DYNAMICBLOCKPURGEPREVENTER_VERSION
  2
AcDbDynamicBlockPurgePreventer
  3
ObjectDBX Classes
 90
     1153
 91
        0
280
     0
281
     0
  0
CLASS
  1
MATERIAL
  2
AcDbMaterial
  3
ObjectDBX Classes
 90
     1153
 91
        3
280
     0
281
     0
  0
CLASS
  1
VISUALSTYLE
  2
AcDbVisualStyle
  3
ObjectDBX Classes
 90
     4095
 91
       24
280
     0
281
     0
  0
CLASS
  1
SCALE
  2
AcDbScale
  3
ObjectDBX Classes
 90
     1153
 91
       17
280
     0
281
     0
  0
CLASS
  1
MLEADERSTYLE
  2
AcDbMLeaderStyle
  3
ACDB_MLEADERSTYLE_CLASS
 90
     4095
 91
        1
280
     0
281
     0
  0
CLASS
  1
CELLSTYLEMAP
  2
AcDbCellStyleMap
  3
ObjectDBX Classes
 90
     1152
 91
        1
280
     0
281
     0
  0
ENDSEC
  0
SECTION
  2
TABLES
  0
TABLE
  2
VPORT
  5
8
330
0
100
AcDbSymbolTable
 70
     1
  0
VPORT
  5
102E4
330
8
100
AcDbSymbolTableRecord
100
AcDbViewportTableRecord
  2
*Active
 70
     0
 10
0.0
 20
0.0
 11
1.0
 21
1.0
 12
-229.2013758133654
 22
-230.2265124157371
 13
0.0
 23
0.0
 14
1.0
 24
1.0
 15
0.0
 25
0.0
 16
0.0
 26
0.0
 36
1.0
 17
0.0
 27
0.0
 37
0.0
 40
35.88377550971146
 41
2.320493066255778
 42
50.0
 43
0.0
 44
0.0
 50
0.0
 51
0.0
 71
     0
 72
 20000
 73
     1
 74
     1
 75
     0
 76
     0
 77
     0
 78
     0
281
     0
 65
     1
110
0.0
120
0.0
130
0.0
111
1.0
121
0.0
131
0.0
112
0.0
122
1.0
132
0.0
 79
     0
146
0.0
1001
ACAD_NAV_VCDISPLAY
1070
     3
  0
ENDTAB
  0
TABLE
  2
LTYPE
  5
5
330
0
100
AcDbSymbolTable
 70
     5
  0
LTYPE
  5
13
330
5
100
AcDbSymbolTableRecord
100
AcDbLinetypeTableRecord
  2
BYBLOCK
 70
     0
  3

 72
    65
 73
     0
 40
0.0
  0
LTYPE
  5
14
330
5
100
AcDbSymbolTableRecord
100
AcDbLinetypeTableRecord
  2
BYLAYER
 70
     0
  3

 72
    65
 73
     0
 40
0.0
  0
LTYPE
  5
15
330
5
100
AcDbSymbolTableRecord
100
AcDbLinetypeTableRecord
  2
CONTINUOUS
 70
     0
  3
Solid line
 72
    65
 73
     0
 40
0.0
  0
LTYPE
  5
27FB
330
5
100
AcDbSymbolTableRecord
100
AcDbLinetypeTableRecord
  2
HIDDEN
 70
     0
  3
Hidden __ __ __ __ __ __ __ __ __ __ __ __ __ __
 72
    65
 73
     2
 40
1.905
 49
1.27
 74
     0
 49
-0.635
 74
     0
  0
LTYPE
  5
27FD
330
5
100
AcDbSymbolTableRecord
100
AcDbLinetypeTableRecord
  2
PHANTOM
 70
     0
  3
Phantom ______  __  __  ______  __  __  ______
 72
    65
 73
     6
 40
2.5
 49
1.25
 74
     0
 49
-0.25
 74
     0
 49
0.25
 74
     0
 49
-0.25
 74
     0
 49
0.25
 74
     0
 49
-0.25
 74
     0
  0
LTYPE
  5
F69E
330
5
100
AcDbSymbolTableRecord
100
AcDbLinetypeTableRecord
  2
DASHDOT2
 70
     0
  3
Dash dot (.5x) _._._._._._._._._._._._._._._.
 72
    65
 73
     4
 40
12.7
 49
6.349999999999998
 74
     0
 49
-3.174999999999998
 74
     0
 49
0.0
 74
     0
 49
-3.174999999999998
 74
     0
  0
LTYPE
  5
FA59
330
5
100
AcDbSymbolTableRecord
100
AcDbLinetypeTableRecord
  2
ACAD_ISO14W100
 70
     0
  3
ISO dash triple-dot __ . . . __ . . . __ . . . 
 72
    65
 73
     8
 40
24.0
 49
12.0
 74
     0
 49
-3.0
 74
     0
 49
0.0
 74
     0
 49
-3.0
 74
     0
 49
0.0
 74
     0
 49
-3.0
 74
     0
 49
0.0
 74
     0
 49
-3.0
 74
     0
  0
ENDTAB
  0
TABLE
  2
LAYER
  5
2
102
{ACAD_XDICTIONARY
360
2659
102
}
330
0
100
AcDbSymbolTable
 70
     7
  0
LAYER
  5
10
102
{ACAD_XDICTIONARY
360
1032D
102
}
330
2
100
AcDbSymbolTableRecord
100
AcDbLayerTableRecord
  2
0
 70
     0
 62
     7
  6
CONTINUOUS
370
    -3
390
F
  0
LAYER
  5
490
102
{ACAD_XDICTIONARY
360
1032F
102
}
330
2
100
AcDbSymbolTableRecord
100
AcDbLayerTableRecord
  2
GRS_GAMBAR
 70
     0
 62
     7
  6
CONTINUOUS
370
    -3
390
F
  0
LAYER
  5
27FF
330
2
100
AcDbSymbolTableRecord
100
AcDbLayerTableRecord
  2
Defpoints
 70
     0
 62
     7
  6
CONTINUOUS
290
     0
370
    -3
390
F
  0
LAYER
  5
F641
102
{ACAD_XDICTIONARY
360
10331
102
}
330
2
100
AcDbSymbolTableRecord
100
AcDbLayerTableRecord
  2
FORMAT
 70
     0
 62
     7
  6
CONTINUOUS
370
    -3
390
F
  0
LAYER
  5
F999
102
{ACAD_XDICTIONARY
360
10333
102
}
330
2
100
AcDbSymbolTableRecord
100
AcDbLayerTableRecord
  2
ASHADE
 70
     4
 62
     7
  6
CONTINUOUS
370
    -3
390
F
  0
LAYER
  5
FA5A
102
{ACAD_XDICTIONARY
360
10335
102
}
330
2
100
AcDbSymbolTableRecord
100
AcDbLayerTableRecord
  2
biaozhu
 70
     0
 62
     3
  6
CONTINUOUS
370
     5
390
F
  0
LAYER
  5
FA5D
102
{ACAD_XDICTIONARY
360
10337
102
}
330
2
100
AcDbSymbolTableRecord
100
AcDbLayerTableRecord
  2
EbLayer9
 70
     0
 62
   142
  6
CONTINUOUS
370
    -3
390
F
  0
ENDTAB
  0
TABLE
  2
STYLE
  5
3
330
0
100
AcDbSymbolTable
 70
     7
  0
STYLE
  5
11
330
3
100
AcDbSymbolTableRecord
100
AcDbTextStyleTableRecord
  2
STANDARD
 70
     0
 40
0.0
 41
1.0
 50
0.0
 71
     0
 42
0.2
  3
ARIAL.TTF
  4

1001
ACAD
1000
Arial
1071
       34
  0
STYLE
  5
35
330
3
100
AcDbSymbolTableRecord
100
AcDbTextStyleTableRecord
  2
ROMANS
 70
     0
 40
0.0
 41
1.0
 50
0.0
 71
     0
 42
6.0
  3
romans.shx
  4

  0
STYLE
  5
881
330
3
100
AcDbSymbolTableRecord
100
AcDbTextStyleTableRecord
  2
BLACK
 70
     0
 40
0.4
 41
1.0
 50
0.0
 71
     0
 42
0.4
  3
ARIAL.TTF
  4

1001
ACAD
1000
Arial
1071
       34
  0
STYLE
  5
F642
330
3
100
AcDbSymbolTableRecord
100
AcDbTextStyleTableRecord
  2
SLDTEXTSTYLE1
 70
     0
 40
0.0
 41
0.5168000000000001
 50
0.0
 71
     0
 42
0.2
  3
TXT
  4

  0
STYLE
  5
F643
330
3
100
AcDbSymbolTableRecord
100
AcDbTextStyleTableRecord
  2
SLDTEXTSTYLE2
 70
     0
 40
0.0
 41
0.605
 50
0.0
 71
     0
 42
0.2
  3
TXT
  4

  0
STYLE
  5
F69F
330
3
100
AcDbSymbolTableRecord
100
AcDbTextStyleTableRecord
  2
Arial Reguler
 70
     0
 40
0.0
 41
1.0
 50
0.0
 71
     0
 42
3.0
  3
ARIAL.TTF
  4

1001
ACAD
1000
Arial
1071
       34
  0
STYLE
  5
F998
330
3
100
AcDbSymbolTableRecord
100
AcDbTextStyleTableRecord
  2
ASHADE
 70
     0
 40
0.2
 41
1.0
 50
0.0
 71
     0
 42
0.2
  3
simplex
  4

  0
ENDTAB
  0
TABLE
  2
VIEW
  5
6
330
0
100
AcDbSymbolTable
 70
     0
  0
ENDTAB
  0
TABLE
  2
UCS
  5
7
330
0
100
AcDbSymbolTable
 70
     0
  0
ENDTAB
  0
TABLE
  2
APPID
  5
9
330
0
100
AcDbSymbolTable
 70
    23
  0
APPID
  5
12
330
9
100
AcDbSymbolTableRecord
100
AcDbRegAppTableRecord
  2
ACAD
 70
     0
  0
APPID
  5
25C
330
9
100
AcDbSymbolTableRecord
100
AcDbRegAppTableRecord
  2
AVE_RENDER
 70
     0
  0
APPID
  5
25D
330
9
100
AcDbSymbolTableRecord
100
AcDbRegAppTableRecord
  2
AVE_MATERIAL
 70
     0
  0
APPID
  5
25E
330
9
100
AcDbSymbolTableRecord
100
AcDbRegAppTableRecord
  2
AVE_ENTITY_MATERIAL
 70
     0
  0
APPID
  5
25F
330
9
100
AcDbSymbolTableRecord
100
AcDbRegAppTableRecord
  2
AVE_FINISH
 70
     0
  0
APPID
  5
260
330
9
100
AcDbSymbolTableRecord
100
AcDbRegAppTableRecord
  2
AVE_GLOBAL
 70
     0
  0
APPID
  5
2657
330
9
100
AcDbSymbolTableRecord
100
AcDbRegAppTableRecord
  2
ACAD_PSEXT
 70
     0
  0
APPID
  5
2658
330
9
100
AcDbSymbolTableRecord
100
AcDbRegAppTableRecord
  2
DCO15
 70
     0
  0
APPID
  5
2800
330
9
100
AcDbSymbolTableRecord
100
AcDbRegAppTableRecord
  2
ACAD_DSTYLE_DIMEXT_LENGTH
 70
     0
  0
APPID
  5
2801
330
9
100
AcDbSymbolTableRecord
100
AcDbRegAppTableRecord
  2
ACAD_DSTYLE_DIMEXT_ENABLED
 70
     0
  0
APPID
  5
2802
330
9
100
AcDbSymbolTableRecord
100
AcDbRegAppTableRecord
  2
ACAD_DSTYLE_DIMJOGGED_JOGANGLE_SYMBOL
 70
     0
  0
APPID
  5
2803
330
9
100
AcDbSymbolTableRecord
100
AcDbRegAppTableRecord
  2
ACAD_DSTYLE_DIMARC_LENGTH_SYMBOL
 70
     0
  0
APPID
  5
2ABE
330
9
100
AcDbSymbolTableRecord
100
AcDbRegAppTableRecord
  2
ACAD_EXEMPT_FROM_CAD_STANDARDS
 70
     0
  0
APPID
  5
2AC4
330
9
100
AcDbSymbolTableRecord
100
AcDbRegAppTableRecord
  2
ACAD_DSTYLE_DIMTEXT_FILL
 70
     0
  0
APPID
  5
2AC7
330
9
100
AcDbSymbolTableRecord
100
AcDbRegAppTableRecord
  2
ACAD_DSTYLE_DIM_LINETYPE
 70
     0
  0
APPID
  5
2AC8
330
9
100
AcDbSymbolTableRecord
100
AcDbRegAppTableRecord
  2
ACAD_DSTYLE_DIM_EXT1_LINETYPE
 70
     0
  0
APPID
  5
2AC9
330
9
100
AcDbSymbolTableRecord
100
AcDbRegAppTableRecord
  2
ACAD_DSTYLE_DIM_EXT2_LINETYPE
 70
     0
  0
APPID
  5
F8E7
330
9
100
AcDbSymbolTableRecord
100
AcDbRegAppTableRecord
  2
ACAUTHENVIRON
 70
     0
  0
APPID
  5
F8EF
330
9
100
AcDbSymbolTableRecord
100
AcDbRegAppTableRecord
  2
AcDbDynamicBlockTrueName
 70
     0
  0
APPID
  5
F8F0
330
9
100
AcDbSymbolTableRecord
100
AcDbRegAppTableRecord
  2
AcDbDynamicBlockGUID
 70
     0
  0
APPID
  5
FA60
330
9
100
AcDbSymbolTableRecord
100
AcDbRegAppTableRecord
  2
AcDbBlockRepETag
 70
     0
  0
APPID
  5
1033B
330
9
100
AcDbSymbolTableRecord
100
AcDbRegAppTableRecord
  2
ACAD_NAV_VCDISPLAY
 70
     0
  0
APPID
  5
10378
330
9
100
AcDbSymbolTableRecord
100
AcDbRegAppTableRecord
  2
ACAD_MLEADERVER
 70
     0
  0
ENDTAB
  0
TABLE
  2
DIMSTYLE
  5
A
330
0
100
AcDbSymbolTable
 70
     2
100
AcDbDimStyleTable
 71
     2
340
2778
340
1C4
  0
DIMSTYLE
105
1C4
330
A
100
AcDbSymbolTableRecord
100
AcDbDimStyleTableRecord
  2
STANDARD
 70
     0
 41
0.3
 42
1.0
 43
5.0
 44
3.0
 77
     1
140
3.0
141
0.0
147
0.6
174
     1
271
     0
272
     0
340
35
1001
ACAD_DSTYLE_DIMJOGGED_JOGANGLE_SYMBOL
1070
   384
1040
0.7853981633974483
1001
ACAD_DSTYLE_DIMEXT_LENGTH
1070
   378
1040
3.0
  0
DIMSTYLE
105
2778
102
{ACAD_REACTORS
330
F940
330
F933
330
1026D
102
}
330
A
100
AcDbSymbolTableRecord
100
AcDbDimStyleTableRecord
  2
COPY_OF_STANDARD
 70
     0
  3
"
  4
mm
 41
0.35
 42
0.1
 43
20.0
 44
0.0999999999999996
 77
     1
140
0.15
141
2.0
147
0.05
148
1.0
170
     1
171
     0
271
     3
272
     3
274
     0
277
     5
340
11
1001
ACAD_DSTYLE_DIMJOGGED_JOGANGLE_SYMBOL
1070
   384
1040
0.7853981633974483
  0
ENDTAB
  0
TABLE
  2
BLOCK_RECORD
  5
1
330
0
100
AcDbSymbolTable
 70
     9
  0
BLOCK_RECORD
  5
1E
102
{ACAD_XDICTIONARY
360
1CF
102
}
330
1
100
AcDbSymbolTableRecord
100
AcDbBlockTableRecord
  2
*MODEL_SPACE
340
2650
  0
BLOCK_RECORD
  5
8143
330
1
100
AcDbSymbolTableRecord
100
AcDbBlockTableRecord
  2
*Paper_Space
340
8144
  0
BLOCK_RECORD
  5
F633
102
{ACAD_XDICTIONARY
360
F634
102
}
330
1
100
AcDbSymbolTableRecord
100
AcDbBlockTableRecord
  2
A$C032810D5
340
0
102
{BLKREFS
331
F64B
102
}
1001
ACAD
1000
DesignCenter Data
1002
{
1070
     1
1070
     4
1002
}
  0
BLOCK_RECORD
  5
F714
102
{ACAD_XDICTIONARY
360
F716
102
}
330
1
100
AcDbSymbolTableRecord
100
AcDbBlockTableRecord
  2
A$C13DF0A87
340
0
1001
ACAD
1000
DesignCenter Data
1002
{
1070
     1
1070
     4
1002
}
  0
BLOCK_RECORD
  5
F934
330
1
100
AcDbSymbolTableRecord
100
AcDbBlockTableRecord
  2
*D2
340
0
  0
BLOCK_RECORD
  5
F941
330
1
100
AcDbSymbolTableRecord
100
AcDbBlockTableRecord
  2
*D3
340
0
  0
BLOCK_RECORD
  5
F99A
330
1
100
AcDbSymbolTableRecord
100
AcDbBlockTableRecord
  2
AVE_RENDER
340
0
102
{BLKREFS
331
F99D
331
F99E
331
F99F
331
F9A0
331
F9A1
331
F9A2
331
F9A3
331
F9A4
102
}
  0
BLOCK_RECORD
  5
F9A5
330
1
100
AcDbSymbolTableRecord
100
AcDbBlockTableRecord
  2
AVE_GLOBAL
340
0
102
{BLKREFS
331
F9A8
102
}
  0
BLOCK_RECORD
  5
F9ED
102
{ACAD_XDICTIONARY
360
F9EE
102
}
330
1
100
AcDbSymbolTableRecord
100
AcDbBlockTableRecord
  2
d
340
0
310
2800000020000000200000000100080000000000000400000000000000000000000000000000000000000000000080000080000000808000800000008000800080800000C0C0C000C0DCC000F0CAA6000020400000206000002080000020A0000020C0000020E00000400000004020000040400000406000004080000040A0
310
000040C0000040E00000600000006020000060400000606000006080000060A0000060C0000060E00000800000008020000080400000806000008080000080A0000080C0000080E00000A0000000A0200000A0400000A0600000A0800000A0A00000A0C00000A0E00000C0000000C0200000C0400000C0600000C0800000C0
310
A00000C0C00000C0E00000E0000000E0200000E0400000E0600000E0800000E0A00000E0C00000E0E00040000000400020004000400040006000400080004000A0004000C0004000E00040200000402020004020400040206000402080004020A0004020C0004020E000404000004040200040404000404060004040800040
310
40A0004040C0004040E00040600000406020004060400040606000406080004060A0004060C0004060E00040800000408020004080400040806000408080004080A0004080C0004080E00040A0000040A0200040A0400040A0600040A0800040A0A00040A0C00040A0E00040C0000040C0200040C0400040C0600040C08000
310
40C0A00040C0C00040C0E00040E0000040E0200040E0400040E0600040E0800040E0A00040E0C00040E0E00080000000800020008000400080006000800080008000A0008000C0008000E00080200000802020008020400080206000802080008020A0008020C0008020E00080400000804020008040400080406000804080
310
008040A0008040C0008040E00080600000806020008060400080606000806080008060A0008060C0008060E00080800000808020008080400080806000808080008080A0008080C0008080E00080A0000080A0200080A0400080A0600080A0800080A0A00080A0C00080A0E00080C0000080C0200080C0400080C0600080C0
310
800080C0A00080C0C00080C0E00080E0000080E0200080E0400080E0600080E0800080E0A00080E0C00080E0E000C0000000C0002000C0004000C0006000C0008000C000A000C000C000C000E000C0200000C0202000C0204000C0206000C0208000C020A000C020C000C020E000C0400000C0402000C0404000C0406000C0
310
408000C040A000C040C000C040E000C0600000C0602000C0604000C0606000C0608000C060A000C060C000C060E000C0800000C0802000C0804000C0806000C0808000C080A000C080C000C080E000C0A00000C0A02000C0A04000C0A06000C0A08000C0A0A000C0A0C000C0A0E000C0C00000C0C02000C0C04000C0C06000
310
C0C08000C0C0A000F0FBFF00A4A0A000808080000000FF0000FF000000FFFF00FF000000FF00FF00FFFF0000FFFFFF0000000000000000000000000000000000000000000000000000000000000000000000000000000000000000000000000000000000000000000000000000000000000000000000000000000000000000
310
00000000000000000000000000000000000000000000000000000000000000000000000000000000000000000000000000000000000000000000000000000000000000000000000000000000000000000000000000000000000000000000000000000000000000000000000000000000000000000000000000000000000000
310
00000000000000000000000000000000000000000000000000000000000000000000000000000000000000000000000000000000000000000000000000000000000000000000000000000000000000000000000000000000000000000000000000000000000000000000000000000000000000000000000000000000000000
310
0000000000000000000000000000000000000000000000000000000000000000000000000000000000000000000000000000000000000000000000000000000000000000000000000000000000000000000000000000FFFFFFFF0000FFFFFFFFFF0000FFFFFFFF0000FFFFFFFFFF00FFFFFF0000000000FFFF0000FF00FF00
310
FF00FF0000FFFF0000FF00FF00FF00FFFFFF000000000000FFFF0000FFFF0000FF00FF0000FFFF0000FF00FF0000FFFF0000000000FFFF00FFFF00FFFFFF0000FFFFFFFF00FFFF00FFFF00FF0000FFFF0000000000FFFF00FFFFFFFFFF00FF00FF00FFFF00FFFF00FFFF00FF00FF00FF0000000000FFFFFFFFFFFFFF00FFFF
310
FFFFFF00FFFFFFFFFFFF00FFFFFFFFFF000000000000000000000000000000000000000000000000000000000000000000000000000000000000000000000000000000000000000000000000000000000000000000000000000000000000000000000000000000000000000000000000000000000000000000000000000000
310
00000000000000000000000000000000000000000000000000000000000000000000000000000000000000000000000000000000000000000000000000000000000000000000000000000000000000000000000000000000000000000000000000000000000000000000000000000000000000000000000000000000000000
310
00000000000000000000000000000000000000000000000000000000000000000000000000000000000000000000000000000000000000000000000000000000000000000000000000000000000000000000000000000000000000000000000000000000000000000000000000000000000000000000000000000000000000
310
0000000000000000000000000000000000000000000000000000000000000000000000000000000000000000000000000000000000000000
102
{BLKREFS
331
FA56
102
}
1001
AcDbDynamicBlockGUID
1000
{7DEC9585-B128-4802-87F9-2E8CA732FDE9}
1001
AcDbBlockRepETag
1070
     1
1071
       96
1001
ACAD
1000
DesignCenter Data
1002
{
1070
     1
1070
     4
1002
}
  0
BLOCK_RECORD
  5
FA51
102
{ACAD_XDICTIONARY
360
FA52
102
}
330
1
100
AcDbSymbolTableRecord
100
AcDbBlockTableRecord
  2
A$C07477C80
340
0
102
{BLKREFS
331
FA6B
102
}
1001
ACAD
1000
DesignCenter Data
1002
{
1070
     1
1070
     4
1002
}
  0
BLOCK_RECORD
  5
1026E
330
1
100
AcDbSymbolTableRecord
100
AcDbBlockTableRecord
  2
*D8
340
0
  0
ENDTAB
  0
ENDSEC
  0
SECTION
  2
BLOCKS
  0
BLOCK
  5
57
330
1E
100
AcDbEntity
  8
0
 62
     6
100
AcDbBlockBegin
  2
*MODEL_SPACE
 70
     0
 10
0.0
 20
0.0
 30
0.0
  3
*MODEL_SPACE
  1

  0
ENDBLK
  5
58
330
1E
100
AcDbEntity
  8
0
 62
     6
100
AcDbBlockEnd
  0
BLOCK
  5
8145
330
8143
100
AcDbEntity
 67
     1
  8
0
 62
     7
100
AcDbBlockBegin
  2
*Paper_Space
 70
     0
 10
0.0
 20
0.0
 30
0.0
  3
*Paper_Space
  1

  0
ENDBLK
  5
8146
330
8143
100
AcDbEntity
 67
     1
  8
0
 62
     7
100
AcDbBlockEnd
  0
BLOCK
  5
F636
330
F633
100
AcDbEntity
  8
0
100
AcDbBlockBegin
  2
A$C032810D5
 70
     0
 10
0.0
 20
0.0
 30
0.0
  3
A$C032810D5
  1

  0
LINE
  5
F637
330
F633
100
AcDbEntity
  8
FORMAT
370
     0
100
AcDbLine
 10
0.0723911208324069
 20
1.506601062565771
 30
0.0
 11
1.072389120832468
 21
1.506601062565771
 31
0.0
  0
LINE
  5
F638
330
F633
100
AcDbEntity
  8
FORMAT
370
    15
100
AcDbLine
 10
0.0723911208324069
 20
1.593800752910143
 30
0.0
 11
0.0723911208324069
 21
1.386934992536178
 31
0.0
  0
LINE
  5
F639
330
F633
100
AcDbEntity
  8
FORMAT
370
     0
100
AcDbLine
 10
1.072389120832468
 20
1.506601062565771
 30
0.0
 11
2.07238712083253
 21
1.506601062565771
 31
0.0
  0
LINE
  5
F63A
330
F633
100
AcDbEntity
  8
FORMAT
370
     0
100
AcDbLine
 10
2.07238712083253
 20
1.506601062565771
 30
0.0
 11
3.072385120832606
 21
1.506601062565771
 31
0.0
  0
LINE
  5
F63B
330
F633
100
AcDbEntity
  8
FORMAT
370
    15
100
AcDbLine
 10
1.072389120832468
 20
1.593800752910143
 30
0.0
 11
1.072389120832468
 21
1.386934992536178
 31
0.0
  0
LINE
  5
F63C
330
F633
100
AcDbEntity
  8
FORMAT
370
    15
100
AcDbLine
 10
2.07238712083253
 20
1.386934992536178
 30
0.0
 11
2.07238712083253
 21
1.593800752910143
 31
0.0
  0
LINE
  5
F63D
330
F633
100
AcDbEntity
  8
FORMAT
370
    15
100
AcDbLine
 10
3.072385120832606
 20
1.593800752910143
 30
0.0
 11
3.072385120832606
 21
1.386934992536178
 31
0.0
  0
TEXT
  5
F63E
330
F633
100
AcDbEntity
  8
FORMAT
 62
     0
100
AcDbText
 10
-0.0000001085305144
 20
0.7777761627971814
 30
0.0
 40
0.2916660833320499
  1
0      1      2      3
 41
0.5168000000000001
  7
SLDTEXTSTYLE1
100
AcDbText
  0
MTEXT
  5
F63F
330
F633
100
AcDbEntity
  8
FORMAT
 62
     0
100
AcDbMText
 10
0.2452150216209503
 20
0.291666033306738
 30
0.0
 40
0.2916660833320499
 41
0.0
 71
     1
 72
     1
  1
SCALE: 1" = 1"
  7
SLDTEXTSTYLE2
 73
     1
 44
1.0
  0
ENDBLK
  5
F640
330
F633
100
AcDbEntity
  8
0
100
AcDbBlockEnd
  0
BLOCK
  5
F718
330
F714
100
AcDbEntity
  8
0
 62
     7
100
AcDbBlockBegin
  2
A$C13DF0A87
 70
     0
 10
0.0
 20
0.0
 30
0.0
  3
A$C13DF0A87
  1

  0
MTEXT
  5
F715
330
F714
100
AcDbEntity
  8
0
 62
     7
100
AcDbMText
 10
0.027231208758252
 20
0.707455085283641
 30
0.0
 40
0.15
 41
1.146242272616771
 71
     1
 72
     5
  1
LT542\P0GU141\PJune 2007
 73
     1
 44
1.0
1001
ACAD
1000
ACAD_MTEXT_DEFINED_HEIGHT_BEGIN
1070
    46
1040
0.8005150133580514
1000
ACAD_MTEXT_DEFINED_HEIGHT_END
  0
ENDBLK
  5
F719
330
F714
100
AcDbEntity
  8
0
 62
     7
100
AcDbBlockEnd
  0
BLOCK
  5
F93E
330
F934
100
AcDbEntity
  8
0
 62
     7
100
AcDbBlockBegin
  2
*D2
 70
     1
 10
0.0
 20
0.0
 30
0.0
  3
*D2
  1

  0
LINE
  5
F96D
330
F934
100
AcDbEntity
  8
0
  6
Continuous
 62
     0
440
 16777216
370
    -2
100
AcDbLine
 10
-215.6109176740363
 20
-237.0305587929318
 30
0.0
 11
-215.6109176740363
 21
-237.6392960405732
 31
0.0
  0
LINE
  5
F96E
330
F934
100
AcDbEntity
  8
0
  6
Continuous
 62
     0
440
 16777216
370
    -2
100
AcDbLine
 10
-233.8231622072127
 20
-237.0305587929318
 30
0.0
 11
-233.8231622072127
 21
-237.6392960405732
 31
0.0
  0
LINE
  5
F96F
330
F934
100
AcDbEntity
  8
0
  6
Continuous
 62
     0
440
 16777216
370
    -2
100
AcDbLine
 10
-215.9609176740362
 20
-237.5392960405732
 30
0.0
 11
-233.4731622072127
 21
-237.5392960405732
 31
0.0
  0
SOLID
  5
F970
330
F934
100
AcDbEntity
  8
0
  6
Continuous
 62
     0
440
 16777216
100
AcDbTrace
 10
-215.9609176740362
 20
-237.4809627072398
 30
0.0
 11
-215.9609176740362
 21
-237.5976293739065
 31
0.0
 12
-215.6109176740363
 22
-237.5392960405732
 32
0.0
 13
-215.6109176740363
 23
-237.5392960405732
 33
0.0
  0
SOLID
  5
F971
330
F934
100
AcDbEntity
  8
0
  6
Continuous
 62
     0
440
 16777216
100
AcDbTrace
 10
-233.4731622072127
 20
-237.4809627072398
 30
0.0
 11
-233.4731622072127
 21
-237.5976293739065
 31
0.0
 12
-233.8231622072127
 22
-237.5392960405732
 32
0.0
 13
-233.8231622072127
 23
-237.5392960405732
 33
0.0
  0
MTEXT
  5
F972
330
F934
100
AcDbEntity
  8
0
  6
Continuous
 62
     0
440
 16777216
100
AcDbMText
 10
-221.4928514884734
 20
-237.2928090010097
 30
0.0
 40
0.15
 41
0.0
 71
     5
 72
     1
  1
\A1;18{\H1.000000x;\S7/32;}" [463mm]
 73
     1
 44
1.0
  0
POINT
  5
F973
330
F934
100
AcDbEntity
  8
Defpoints
  6
Continuous
 62
     0
440
 16777216
100
AcDbPoint
 10
-215.6109176740363
 20
-236.9305587929318
 30
0.0
  0
POINT
  5
F974
330
F934
100
AcDbEntity
  8
Defpoints
  6
Continuous
 62
     0
440
 16777216
100
AcDbPoint
 10
-233.8231622072127
 20
-236.9305587929318
 30
0.0
  0
POINT
  5
F975
330
F934
100
AcDbEntity
  8
Defpoints
  6
Continuous
 62
     0
440
 16777216
100
AcDbPoint
 10
-233.8231622072127
 20
-237.5392960405732
 30
0.0
  0
ENDBLK
  5
F93F
330
F934
100
AcDbEntity
  8
0
 62
     7
100
AcDbBlockEnd
  0
BLOCK
  5
F94C
330
F941
100
AcDbEntity
  8
0
 62
     7
100
AcDbBlockBegin
  2
*D3
 70
     1
 10
0.0
 20
0.0
 30
0.0
  3
*D3
  1

  0
LINE
  5
FAB2
330
F941
100
AcDbEntity
  8
0
  6
Continuous
 62
     0
440
 16777216
370
    -2
100
AcDbLine
 10
-224.6170399406245
 20
-228.8462040589674
 30
0.0
 11
-220.1052186459933
 21
-228.8462040589674
 31
0.0
  0
LINE
  5
FAB3
330
F941
100
AcDbEntity
  8
0
  6
Continuous
 62
     0
440
 16777216
370
    -2
100
AcDbLine
 10
-224.9129960293734
 20
-240.5084493663418
 30
0.0
 11
-220.1052186459933
 21
-240.5084493663418
 31
0.0
  0
LINE
  5
FAB4
330
F941
100
AcDbEntity
  8
0
  6
Continuous
 62
     0
440
 16777216
370
    -2
100
AcDbLine
 10
-220.2052186459932
 20
-229.1962040589674
 30
0.0
 11
-220.2052186459932
 21
-234.8911543967056
 31
0.0
  0
LINE
  5
FAB5
330
F941
100
AcDbEntity
  8
0
  6
Continuous
 62
     0
440
 16777216
370
    -2
100
AcDbLine
 10
-220.2052186459932
 20
-240.1584493663418
 30
0.0
 11
-220.2052186459932
 21
-235.3866864567329
 31
0.0
  0
SOLID
  5
FAB6
330
F941
100
AcDbEntity
  8
0
  6
Continuous
 62
     0
440
 16777216
100
AcDbTrace
 10
-220.2635519793266
 20
-229.1962040589674
 30
0.0
 11
-220.1468853126599
 21
-229.1962040589674
 31
0.0
 12
-220.2052186459932
 22
-228.8462040589674
 32
0.0
 13
-220.2052186459932
 23
-228.8462040589674
 33
0.0
  0
SOLID
  5
FAB7
330
F941
100
AcDbEntity
  8
0
  6
Continuous
 62
     0
440
 16777216
100
AcDbTrace
 10
-220.2635519793266
 20
-240.1584493663418
 30
0.0
 11
-220.1468853126599
 21
-240.1584493663418
 31
0.0
 12
-220.2052186459932
 22
-240.5084493663418
 32
0.0
 13
-220.2052186459932
 23
-240.5084493663418
 33
0.0
  0
MTEXT
  5
FAB8
330
F941
100
AcDbEntity
  8
0
  6
Continuous
 62
     0
440
 16777216
100
AcDbMText
 10
-220.2052186459932
 20
-235.1389204267193
 30
0.0
 40
0.15
 41
0.0
 71
     5
 72
     1
  1
\A1;11{\H1.000000x;\S21/32;}" [296mm]
 73
     1
 44
1.0
  0
POINT
  5
FAB9
330
F941
100
AcDbEntity
  8
Defpoints
  6
Continuous
 62
     0
440
 16777216
100
AcDbPoint
 10
-224.7170399406245
 20
-228.8462040589674
 30
0.0
  0
POINT
  5
FABA
330
F941
100
AcDbEntity
  8
Defpoints
  6
Continuous
 62
     0
440
 16777216
100
AcDbPoint
 10
-225.0129960293734
 20
-240.5084493663418
 30
0.0
  0
POINT
  5
FABB
330
F941
100
AcDbEntity
  8
Defpoints
  6
Continuous
 62
     0
440
 16777216
100
AcDbPoint
 10
-220.2052186459932
 20
-240.5084493663418
 30
0.0
  0
ENDBLK
  5
F94D
330
F941
100
AcDbEntity
  8
0
 62
     7
100
AcDbBlockEnd
  0
BLOCK
  5
F99B
330
F99A
100
AcDbEntity
  8
ASHADE
100
AcDbBlockBegin
  2
AVE_RENDER
 70
     0
 10
0.0
 20
0.0
 30
0.0
  3
AVE_RENDER
  1
AVE_RENDER
  0
ENDBLK
  5
F99C
330
F99A
100
AcDbEntity
  8
0
100
AcDbBlockEnd
  0
BLOCK
  5
F9A6
330
F9A5
100
AcDbEntity
  8
ASHADE
100
AcDbBlockBegin
  2
AVE_GLOBAL
 70
     0
 10
0.0
 20
0.0
 30
0.0
  3
AVE_GLOBAL
  1
AVE_GLOBAL
  0
ENDBLK
  5
F9A7
330
F9A5
100
AcDbEntity
  8
0
100
AcDbBlockEnd
  0
BLOCK
  5
F9EF
330
F9ED
100
AcDbEntity
  8
0
100
AcDbBlockBegin
  2
d
 70
     0
 10
0.0
 20
0.0
 30
0.0
  3
d
  1

  0
LINE
  5
F9F0
330
F9ED
100
AcDbEntity
  8
EbLayer9
 62
     7
100
AcDbLine
 10
8993.054616067793
 20
1898.810069432608
 30
0.0
 11
8992.952032878184
 21
1896.776694969381
 31
0.0
1001
AcDbBlockRepETag
1070
     1
1071
        0
1005
F9F0
  0
LINE
  5
F9F1
330
F9ED
100
AcDbEntity
  8
EbLayer9
 62
     7
100
AcDbLine
 10
8987.899401299237
 20
1910.98722128517
 30
0.0
 11
9008.42571708871
 21
1910.98722128517
 31
0.0
1001
AcDbBlockRepETag
1070
     1
1071
        1
1005
F9F1
  0
LINE
  5
F9F2
330
F9ED
100
AcDbEntity
  8
EbLayer9
 62
     7
100
AcDbLine
 10
8987.899401299237
 20
1910.98722128517
 30
0.0
 11
8987.899401299237
 21
1896.776694969381
 31
0.0
1001
AcDbBlockRepETag
1070
     1
1071
        2
1005
F9F2
  0
LINE
  5
F9F3
330
F9ED
100
AcDbEntity
  8
EbLayer9
 62
     7
100
AcDbLine
 10
8987.899401299237
 20
1896.776694969381
 30
0.0
 11
8992.952032878184
 21
1896.776694969381
 31
0.0
1001
AcDbBlockRepETag
1070
     1
1071
        3
1005
F9F3
  0
ARC
  5
F9F4
330
F9ED
100
AcDbEntity
  8
EbLayer9
 62
     7
100
AcDbCircle
 10
9000.215190772919
 20
1899.303010758855
 30
0.0
 40
6.947368421052622
100
AcDbArc
 50
90.0
 51
153.3766547574232
1001
AcDbBlockRepETag
1070
     1
1071
        4
1005
F9F4
  0
ARC
  5
F9F5
330
F9ED
100
AcDbEntity
  8
EbLayer9
 62
     7
100
AcDbCircle
 10
9002.109927615027
 20
1898.353231423563
 30
0.0
 40
9.066827900867385
100
AcDbArc
 50
153.3766547574348
 51
177.1118935699077
1001
AcDbBlockRepETag
1070
     1
1071
        5
1005
F9F5
  0
LINE
  5
F9F6
330
F9ED
100
AcDbEntity
  8
EbLayer9
 62
     7
100
AcDbLine
 10
9000.215190772919
 20
1906.250379179907
 30
0.0
 11
9003.688874983447
 21
1906.250379179907
 31
0.0
1001
AcDbBlockRepETag
1070
     1
1071
        6
1005
F9F6
  0
LINE
  5
F9F7
330
F9ED
100
AcDbEntity
  8
EbLayer9
 62
     7
100
AcDbLine
 10
8995.794138141341
 20
1877.829326548328
 30
0.0
 11
8995.794138141341
 21
1873.092484443065
 31
0.0
1001
AcDbBlockRepETag
1070
     1
1071
        7
1005
F9F7
  0
LINE
  5
F9F8
330
F9ED
100
AcDbEntity
  8
EbLayer9
 62
     7
100
AcDbLine
 10
8995.794138141341
 20
1873.092484443065
 30
0.0
 11
9008.42571708871
 21
1873.092484443065
 31
0.0
1001
AcDbBlockRepETag
1070
     1
1071
        8
1005
F9F8
  0
ARC
  5
F9F9
330
F9ED
100
AcDbEntity
  8
EbLayer9
 62
     7
100
AcDbCircle
 10
9001.478348667658
 20
1880.039852864117
 30
0.0
 40
2.210526315789474
100
AcDbArc
 50
270.0000030592861
 51
0.0000078501422693
1001
AcDbBlockRepETag
1070
     1
1071
        9
1005
F9F9
  0
LINE
  5
F9FA
330
F9ED
100
AcDbEntity
  8
EbLayer9
 62
     7
100
AcDbLine
 10
9003.688874983447
 20
1906.250379179907
 30
0.0
 11
9003.688874983447
 21
1880.039852561252
 31
0.0
1001
AcDbBlockRepETag
1070
     1
1071
       10
1005
F9FA
  0
LINE
  5
F9FB
330
F9ED
100
AcDbEntity
  8
EbLayer9
 62
     7
100
AcDbLine
 10
8995.794138141341
 20
1877.829326548328
 30
0.0
 11
9001.478348803948
 21
1877.829326548328
 31
0.0
1001
AcDbBlockRepETag
1070
     1
1071
       11
1005
F9FB
  0
LINE
  5
F9FC
330
F9ED
100
AcDbEntity
  8
EbLayer9
 62
     7
100
AcDbLine
 10
9023.796818109628
 20
1898.810069432608
 30
0.0
 11
9023.899401299237
 21
1896.776694969381
 31
0.0
1001
AcDbBlockRepETag
1070
     1
1071
       12
1005
F9FC
  0
LINE
  5
F9FD
330
F9ED
100
AcDbEntity
  8
EbLayer9
 62
     7
100
AcDbLine
 10
9028.952032878184
 20
1910.98722128517
 30
0.0
 11
9028.952032878184
 21
1896.776694969381
 31
0.0
1001
AcDbBlockRepETag
1070
     1
1071
       13
1005
F9FD
  0
LINE
  5
F9FE
330
F9ED
100
AcDbEntity
  8
EbLayer9
 62
     7
100
AcDbLine
 10
9028.952032878184
 20
1896.776694969381
 30
0.0
 11
9023.899401299237
 21
1896.776694969381
 31
0.0
1001
AcDbBlockRepETag
1070
     1
1071
       14
1005
F9FE
  0
ARC
  5
F9FF
330
F9ED
100
AcDbEntity
  8
EbLayer9
 62
     7
100
AcDbCircle
 10
9016.636243404501
 20
1899.303010758855
 30
0.0
 40
6.947368421052622
100
AcDbArc
 50
26.62334524256512
 51
90.0
1001
AcDbBlockRepETag
1070
     1
1071
       15
1005
F9FF
  0
ARC
  5
FA00
330
F9ED
100
AcDbEntity
  8
EbLayer9
 62
     7
100
AcDbCircle
 10
9014.741506562392
 20
1898.353231423563
 30
0.0
 40
9.066827900867385
100
AcDbArc
 50
2.888106430105267
 51
26.62334524257676
1001
AcDbBlockRepETag
1070
     1
1071
       16
1005
FA00
  0
LINE
  5
FA01
330
F9ED
100
AcDbEntity
  8
EbLayer9
 62
     7
100
AcDbLine
 10
9016.636243404501
 20
1906.250379179907
 30
0.0
 11
9013.162559193974
 21
1906.250379179907
 31
0.0
1001
AcDbBlockRepETag
1070
     1
1071
       17
1005
FA01
  0
LINE
  5
FA02
330
F9ED
100
AcDbEntity
  8
EbLayer9
 62
     7
100
AcDbLine
 10
9021.057296036079
 20
1877.829326548328
 30
0.0
 11
9021.057296036079
 21
1873.092484443065
 31
0.0
1001
AcDbBlockRepETag
1070
     1
1071
       18
1005
FA02
  0
ARC
  5
FA03
330
F9ED
100
AcDbEntity
  8
EbLayer9
 62
     7
100
AcDbCircle
 10
9015.373085509763
 20
1880.039852864117
 30
0.0
 40
2.210526315789474
100
AcDbArc
 50
180.0
 51
270.0000047908041
1001
AcDbBlockRepETag
1070
     1
1071
       19
1005
FA03
  0
LINE
  5
FA04
330
F9ED
100
AcDbEntity
  8
EbLayer9
 62
     7
100
AcDbLine
 10
9013.162559193974
 20
1906.250379179907
 30
0.0
 11
9013.162559193974
 21
1880.039852561252
 31
0.0
1001
AcDbBlockRepETag
1070
     1
1071
       20
1005
FA04
  0
LINE
  5
FA05
330
F9ED
100
AcDbEntity
  8
EbLayer9
 62
     7
100
AcDbLine
 10
9021.057296036079
 20
1877.829326548328
 30
0.0
 11
9015.373085373473
 21
1877.829326548328
 31
0.0
1001
AcDbBlockRepETag
1070
     1
1071
       21
1005
FA05
  0
LINE
  5
FA06
330
F9ED
100
AcDbEntity
  8
EbLayer9
 62
     7
100
AcDbLine
 10
9021.057296036079
 20
1873.092484443065
 30
0.0
 11
9008.42571708871
 21
1873.092484443065
 31
0.0
1001
AcDbBlockRepETag
1070
     1
1071
       22
1005
FA06
  0
LINE
  5
FA07
330
F9ED
100
AcDbEntity
  8
EbLayer9
 62
     7
100
AcDbLine
 10
9028.952032878184
 20
1910.98722128517
 30
0.0
 11
9008.42571708871
 21
1910.98722128517
 31
0.0
1001
AcDbBlockRepETag
1070
     1
1071
       23
1005
FA07
  0
ARC
  5
FA08
330
F9ED
100
AcDbEntity
  8
EbLayer9
 62
     7
100
AcDbCircle
 10
9050.899401299238
 20
1893.934589706222
 30
0.0
 40
18.47368421052628
100
AcDbArc
 50
123.2283345790473
 51
147.3722951475082
1001
AcDbBlockRepETag
1070
     1
1071
       24
1005
FA08
  0
ARC
  5
FA09
330
F9ED
100
AcDbEntity
  8
EbLayer9
 62
     7
100
AcDbCircle
 10
9054.21519077292
 20
1882.566168653591
 30
0.0
 40
30.00000000000006
100
AcDbArc
 50
90.0
 51
116.613179948938
1001
AcDbBlockRepETag
1070
     1
1071
       25
1005
FA09
  0
ARC
  5
FA0A
330
F9ED
100
AcDbEntity
  8
EbLayer9
 62
     7
100
AcDbCircle
 10
9057.373085509764
 20
1892.039852864118
 30
0.0
 40
25.01921699087665
100
AcDbArc
 50
151.7155350991591
 51
180.000000000013
1001
AcDbBlockRepETag
1070
     1
1071
       26
1005
FA0A
  0
ARC
  5
FA0B
330
F9ED
100
AcDbEntity
  8
EbLayer9
 62
     7
100
AcDbCircle
 10
9054.21519077292
 20
1882.566168653591
 30
0.0
 40
30.00000000000006
100
AcDbArc
 50
63.38682005106201
 51
90.0
1001
AcDbBlockRepETag
1070
     1
1071
       27
1005
FA0B
  0
ARC
  5
FA0C
330
F9ED
100
AcDbEntity
  8
EbLayer9
 62
     7
100
AcDbCircle
 10
9057.530980246605
 20
1893.934589706222
 30
0.0
 40
18.47368421052628
100
AcDbArc
 50
32.62770485255892
 51
56.77166542095987
1001
AcDbBlockRepETag
1070
     1
1071
       28
1005
FA0C
  0
ARC
  5
FA0D
330
F9ED
100
AcDbEntity
  8
EbLayer9
 62
     7
100
AcDbCircle
 10
9051.057296036079
 20
1892.039852864118
 30
0.0
 40
25.01921699087665
100
AcDbArc
 50
0.0
 51
28.28446490085239
1001
AcDbBlockRepETag
1070
     1
1071
       29
1005
FA0D
  0
ARC
  5
FA0E
330
F9ED
100
AcDbEntity
  8
EbLayer9
 62
     7
100
AcDbCircle
 10
9057.373085509764
 20
1892.039852864118
 30
0.0
 40
25.01921699087665
100
AcDbArc
 50
180.0
 51
208.2844649008524
1001
AcDbBlockRepETag
1070
     1
1071
       30
1005
FA0E
  0
ARC
  5
FA0F
330
F9ED
100
AcDbEntity
  8
EbLayer9
 62
     7
100
AcDbCircle
 10
9050.899401299238
 20
1890.145116022012
 30
0.0
 40
18.47368421052628
100
AcDbArc
 50
212.6277048525027
 51
236.7716654209599
1001
AcDbBlockRepETag
1070
     1
1071
       31
1005
FA0F
  0
ARC
  5
FA10
330
F9ED
100
AcDbEntity
  8
EbLayer9
 62
     7
100
AcDbCircle
 10
9054.21519077292
 20
1901.513537074644
 30
0.0
 40
30.00000000000006
100
AcDbArc
 50
243.386820051062
 51
270.0
1001
AcDbBlockRepETag
1070
     1
1071
       32
1005
FA10
  0
ARC
  5
FA11
330
F9ED
100
AcDbEntity
  8
EbLayer9
 62
     7
100
AcDbCircle
 10
9054.21519077292
 20
1901.513537074644
 30
0.0
 40
30.00000000000006
100
AcDbArc
 50
270.0
 51
296.6131799489379
1001
AcDbBlockRepETag
1070
     1
1071
       33
1005
FA11
  0
ARC
  5
FA12
330
F9ED
100
AcDbEntity
  8
EbLayer9
 62
     7
100
AcDbCircle
 10
9057.530980246605
 20
1890.145116022012
 30
0.0
 40
18.47368421052628
100
AcDbArc
 50
303.2283345790473
 51
327.3722951475083
1001
AcDbBlockRepETag
1070
     1
1071
       34
1005
FA12
  0
ARC
  5
FA13
330
F9ED
100
AcDbEntity
  8
EbLayer9
 62
     7
100
AcDbCircle
 10
9051.057296036079
 20
1892.039852864118
 30
0.0
 40
25.01921699087665
100
AcDbArc
 50
331.7155350991591
 51
0.0000000000130276
1001
AcDbBlockRepETag
1070
     1
1071
       35
1005
FA13
  0
ARC
  5
FA14
330
F9ED
100
AcDbEntity
  8
EbLayer9
 62
     7
100
AcDbCircle
 10
9054.21519077292
 20
1896.776694969381
 30
0.0
 40
10.81578947368426
100
AcDbArc
 50
90.0
 51
137.4956699051434
1001
AcDbBlockRepETag
1070
     1
1071
       36
1005
FA14
  0
ARC
  5
FA15
330
F9ED
100
AcDbEntity
  8
EbLayer9
 62
     7
100
AcDbCircle
 10
9054.84676972029
 20
1896.776694969381
 30
0.0
 40
11.28947368421053
100
AcDbArc
 50
139.6618731991424
 51
180.000000000013
1001
AcDbBlockRepETag
1070
     1
1071
       37
1005
FA15
  0
ARC
  5
FA16
330
F9ED
100
AcDbEntity
  8
EbLayer9
 62
     7
100
AcDbCircle
 10
9076.320453930817
 20
1892.039852864118
 30
0.0
 40
33.10380927273632
100
AcDbArc
 50
171.7732775359098
 51
180.000000000013
1001
AcDbBlockRepETag
1070
     1
1071
       38
1005
FA16
  0
ARC
  5
FA17
330
F9ED
100
AcDbEntity
  8
EbLayer9
 62
     7
100
AcDbCircle
 10
9054.21519077292
 20
1896.776694969381
 30
0.0
 40
10.81578947368426
100
AcDbArc
 50
42.5043300948566
 51
90.0
1001
AcDbBlockRepETag
1070
     1
1071
       39
1005
FA17
  0
ARC
  5
FA18
330
F9ED
100
AcDbEntity
  8
EbLayer9
 62
     7
100
AcDbCircle
 10
9053.583611825551
 20
1896.776694969381
 30
0.0
 40
11.28947368421053
100
AcDbArc
 50
0.0
 51
40.33812680085757
1001
AcDbBlockRepETag
1070
     1
1071
       40
1005
FA18
  0
ARC
  5
FA19
330
F9ED
100
AcDbEntity
  8
EbLayer9
 62
     7
100
AcDbCircle
 10
9032.109927615024
 20
1892.039852864118
 30
0.0
 40
33.10380927273632
100
AcDbArc
 50
0.0
 51
8.226722464103046
1001
AcDbBlockRepETag
1070
     1
1071
       41
1005
FA19
  0
ARC
  5
FA1A
330
F9ED
100
AcDbEntity
  8
EbLayer9
 62
     7
100
AcDbCircle
 10
9076.320453930817
 20
1892.039852864118
 30
0.0
 40
33.10380927273632
100
AcDbArc
 50
180.0
 51
188.226722464103
1001
AcDbBlockRepETag
1070
     1
1071
       42
1005
FA1A
  0
ARC
  5
FA1B
330
F9ED
100
AcDbEntity
  8
EbLayer9
 62
     7
100
AcDbCircle
 10
9054.84676972029
 20
1887.303010758854
 30
0.0
 40
11.28947368421053
100
AcDbArc
 50
180.0
 51
220.3381268008576
1001
AcDbBlockRepETag
1070
     1
1071
       43
1005
FA1B
  0
ARC
  5
FA1C
330
F9ED
100
AcDbEntity
  8
EbLayer9
 62
     7
100
AcDbCircle
 10
9054.21519077292
 20
1887.303010758854
 30
0.0
 40
10.81578947368426
100
AcDbArc
 50
222.5043300948566
 51
270.0
1001
AcDbBlockRepETag
1070
     1
1071
       44
1005
FA1C
  0
ARC
  5
FA1D
330
F9ED
100
AcDbEntity
  8
EbLayer9
 62
     7
100
AcDbCircle
 10
9054.21519077292
 20
1887.303010758854
 30
0.0
 40
10.81578947368426
100
AcDbArc
 50
270.0
 51
317.4956699051434
1001
AcDbBlockRepETag
1070
     1
1071
       45
1005
FA1D
  0
ARC
  5
FA1E
330
F9ED
100
AcDbEntity
  8
EbLayer9
 62
     7
100
AcDbCircle
 10
9053.583611825551
 20
1887.303010758854
 30
0.0
 40
11.28947368421053
100
AcDbArc
 50
319.6618731991424
 51
0.0000000000130276
1001
AcDbBlockRepETag
1070
     1
1071
       46
1005
FA1E
  0
ARC
  5
FA1F
330
F9ED
100
AcDbEntity
  8
EbLayer9
 62
     7
100
AcDbCircle
 10
9032.109927615024
 20
1892.039852864118
 30
0.0
 40
33.10380927273632
100
AcDbArc
 50
351.7732775359098
 51
0.0000000000130276
1001
AcDbBlockRepETag
1070
     1
1071
       47
1005
FA1F
  0
LINE
  5
FA20
330
F9ED
100
AcDbEntity
  8
EbLayer9
 62
     7
100
AcDbLine
 10
9115.375765478049
 20
1898.810069432608
 30
0.0
 11
9115.478348667657
 21
1896.776694969381
 31
0.0
1001
AcDbBlockRepETag
1070
     1
1071
       48
1005
FA20
  0
LINE
  5
FA21
330
F9ED
100
AcDbEntity
  8
EbLayer9
 62
     7
100
AcDbLine
 10
9120.530980246606
 20
1910.98722128517
 30
0.0
 11
9100.004664457133
 21
1910.98722128517
 31
0.0
1001
AcDbBlockRepETag
1070
     1
1071
       49
1005
FA21
  0
LINE
  5
FA22
330
F9ED
100
AcDbEntity
  8
EbLayer9
 62
     7
100
AcDbLine
 10
9120.530980246606
 20
1910.98722128517
 30
0.0
 11
9120.530980246606
 21
1896.776694969381
 31
0.0
1001
AcDbBlockRepETag
1070
     1
1071
       50
1005
FA22
  0
LINE
  5
FA23
330
F9ED
100
AcDbEntity
  8
EbLayer9
 62
     7
100
AcDbLine
 10
9120.530980246606
 20
1896.776694969381
 30
0.0
 11
9115.478348667657
 21
1896.776694969381
 31
0.0
1001
AcDbBlockRepETag
1070
     1
1071
       51
1005
FA23
  0
ARC
  5
FA24
330
F9ED
100
AcDbEntity
  8
EbLayer9
 62
     7
100
AcDbCircle
 10
9108.21519077292
 20
1899.303010758855
 30
0.0
 40
6.947368421052622
100
AcDbArc
 50
26.62334524256512
 51
90.0
1001
AcDbBlockRepETag
1070
     1
1071
       52
1005
FA24
  0
ARC
  5
FA25
330
F9ED
100
AcDbEntity
  8
EbLayer9
 62
     7
100
AcDbCircle
 10
9106.320453930816
 20
1898.353231423563
 30
0.0
 40
9.066827900867385
100
AcDbArc
 50
2.888106430105267
 51
26.62334524257676
1001
AcDbBlockRepETag
1070
     1
1071
       53
1005
FA25
  0
LINE
  5
FA26
330
F9ED
100
AcDbEntity
  8
EbLayer9
 62
     7
100
AcDbLine
 10
9108.21519077292
 20
1906.250379179907
 30
0.0
 11
9104.741506562394
 21
1906.250379179907
 31
0.0
1001
AcDbBlockRepETag
1070
     1
1071
       54
1005
FA26
  0
LINE
  5
FA27
330
F9ED
100
AcDbEntity
  8
EbLayer9
 62
     7
100
AcDbLine
 10
9112.6362434045
 20
1877.829326548328
 30
0.0
 11
9112.6362434045
 21
1873.092484443065
 31
0.0
1001
AcDbBlockRepETag
1070
     1
1071
       55
1005
FA27
  0
LINE
  5
FA28
330
F9ED
100
AcDbEntity
  8
EbLayer9
 62
     7
100
AcDbLine
 10
9112.6362434045
 20
1873.092484443065
 30
0.0
 11
9100.004664457133
 21
1873.092484443065
 31
0.0
1001
AcDbBlockRepETag
1070
     1
1071
       56
1005
FA28
  0
ARC
  5
FA29
330
F9ED
100
AcDbEntity
  8
EbLayer9
 62
     7
100
AcDbCircle
 10
9106.952032878183
 20
1880.039852864117
 30
0.0
 40
2.210526315789474
100
AcDbArc
 50
180.0
 51
270.0000047908041
1001
AcDbBlockRepETag
1070
     1
1071
       57
1005
FA29
  0
LINE
  5
FA2A
330
F9ED
100
AcDbEntity
  8
EbLayer9
 62
     7
100
AcDbLine
 10
9104.741506562394
 20
1906.250379179907
 30
0.0
 11
9104.741506562394
 21
1880.039852561252
 31
0.0
1001
AcDbBlockRepETag
1070
     1
1071
       58
1005
FA2A
  0
LINE
  5
FA2B
330
F9ED
100
AcDbEntity
  8
EbLayer9
 62
     7
100
AcDbLine
 10
9112.6362434045
 20
1877.829326548328
 30
0.0
 11
9106.952032741896
 21
1877.829326548328
 31
0.0
1001
AcDbBlockRepETag
1070
     1
1071
       59
1005
FA2B
  0
LINE
  5
FA2C
330
F9ED
100
AcDbEntity
  8
EbLayer9
 62
     7
100
AcDbLine
 10
9084.633563436215
 20
1898.810069432608
 30
0.0
 11
9084.530980246606
 21
1896.776694969381
 31
0.0
1001
AcDbBlockRepETag
1070
     1
1071
       60
1005
FA2C
  0
LINE
  5
FA2D
330
F9ED
100
AcDbEntity
  8
EbLayer9
 62
     7
100
AcDbLine
 10
9079.478348667656
 20
1910.98722128517
 30
0.0
 11
9079.478348667656
 21
1896.776694969381
 31
0.0
1001
AcDbBlockRepETag
1070
     1
1071
       61
1005
FA2D
  0
LINE
  5
FA2E
330
F9ED
100
AcDbEntity
  8
EbLayer9
 62
     7
100
AcDbLine
 10
9079.478348667656
 20
1896.776694969381
 30
0.0
 11
9084.530980246606
 21
1896.776694969381
 31
0.0
1001
AcDbBlockRepETag
1070
     1
1071
       62
1005
FA2E
  0
ARC
  5
FA2F
330
F9ED
100
AcDbEntity
  8
EbLayer9
 62
     7
100
AcDbCircle
 10
9091.794138141343
 20
1899.303010758855
 30
0.0
 40
6.947368421052622
100
AcDbArc
 50
90.0
 51
153.3766547574232
1001
AcDbBlockRepETag
1070
     1
1071
       63
1005
FA2F
  0
ARC
  5
FA30
330
F9ED
100
AcDbEntity
  8
EbLayer9
 62
     7
100
AcDbCircle
 10
9093.688874983447
 20
1898.353231423563
 30
0.0
 40
9.066827900867385
100
AcDbArc
 50
153.3766547574232
 51
177.1118935698947
1001
AcDbBlockRepETag
1070
     1
1071
       64
1005
FA30
  0
LINE
  5
FA31
330
F9ED
100
AcDbEntity
  8
EbLayer9
 62
     7
100
AcDbLine
 10
9091.794138141343
 20
1906.250379179907
 30
0.0
 11
9095.267822351869
 21
1906.250379179907
 31
0.0
1001
AcDbBlockRepETag
1070
     1
1071
       65
1005
FA31
  0
LINE
  5
FA32
330
F9ED
100
AcDbEntity
  8
EbLayer9
 62
     7
100
AcDbLine
 10
9087.373085509764
 20
1877.829326548328
 30
0.0
 11
9087.373085509764
 21
1873.092484443065
 31
0.0
1001
AcDbBlockRepETag
1070
     1
1071
       66
1005
FA32
  0
ARC
  5
FA33
330
F9ED
100
AcDbEntity
  8
EbLayer9
 62
     7
100
AcDbCircle
 10
9093.057296036079
 20
1880.039852864117
 30
0.0
 40
2.210526315789474
100
AcDbArc
 50
270.0000030592861
 51
0.0000078501683244
1001
AcDbBlockRepETag
1070
     1
1071
       67
1005
FA33
  0
LINE
  5
FA34
330
F9ED
100
AcDbEntity
  8
EbLayer9
 62
     7
100
AcDbLine
 10
9095.267822351869
 20
1906.250379179907
 30
0.0
 11
9095.267822351869
 21
1880.039852561252
 31
0.0
1001
AcDbBlockRepETag
1070
     1
1071
       68
1005
FA34
  0
LINE
  5
FA35
330
F9ED
100
AcDbEntity
  8
EbLayer9
 62
     7
100
AcDbLine
 10
9087.373085509764
 20
1877.829326548328
 30
0.0
 11
9093.057296172368
 21
1877.829326548328
 31
0.0
1001
AcDbBlockRepETag
1070
     1
1071
       69
1005
FA35
  0
LINE
  5
FA36
330
F9ED
100
AcDbEntity
  8
EbLayer9
 62
     7
100
AcDbLine
 10
9087.373085509764
 20
1873.092484443065
 30
0.0
 11
9100.004664457133
 21
1873.092484443065
 31
0.0
1001
AcDbBlockRepETag
1070
     1
1071
       70
1005
FA36
  0
LINE
  5
FA37
330
F9ED
100
AcDbEntity
  8
EbLayer9
 62
     7
100
AcDbLine
 10
9079.478348667656
 20
1910.98722128517
 30
0.0
 11
9100.004664457133
 21
1910.98722128517
 31
0.0
1001
AcDbBlockRepETag
1070
     1
1071
       71
1005
FA37
  0
ARC
  5
FA38
330
F9ED
100
AcDbEntity
  8
EbLayer9
 62
     7
100
AcDbCircle
 10
9149.109927615027
 20
1893.934589706222
 30
0.0
 40
18.47368421052628
100
AcDbArc
 50
32.62770485255892
 51
56.77166542095987
1001
AcDbBlockRepETag
1070
     1
1071
       72
1005
FA38
  0
ARC
  5
FA39
330
F9ED
100
AcDbEntity
  8
EbLayer9
 62
     7
100
AcDbCircle
 10
9145.794138141342
 20
1882.566168653591
 30
0.0
 40
30.00000000000006
100
AcDbArc
 50
63.38682005106201
 51
90.0
1001
AcDbBlockRepETag
1070
     1
1071
       73
1005
FA39
  0
ARC
  5
FA3A
330
F9ED
100
AcDbEntity
  8
EbLayer9
 62
     7
100
AcDbCircle
 10
9142.636243404501
 20
1892.039852864118
 30
0.0
 40
25.01921699087665
100
AcDbArc
 50
0.0
 51
28.28446490085239
1001
AcDbBlockRepETag
1070
     1
1071
       74
1005
FA3A
  0
ARC
  5
FA3B
330
F9ED
100
AcDbEntity
  8
EbLayer9
 62
     7
100
AcDbCircle
 10
9145.794138141342
 20
1882.566168653591
 30
0.0
 40
30.00000000000006
100
AcDbArc
 50
90.0
 51
116.613179948938
1001
AcDbBlockRepETag
1070
     1
1071
       75
1005
FA3B
  0
ARC
  5
FA3C
330
F9ED
100
AcDbEntity
  8
EbLayer9
 62
     7
100
AcDbCircle
 10
9142.478348667657
 20
1893.934589706222
 30
0.0
 40
18.47368421052628
100
AcDbArc
 50
123.2283345790473
 51
147.3722951475082
1001
AcDbBlockRepETag
1070
     1
1071
       76
1005
FA3C
  0
ARC
  5
FA3D
330
F9ED
100
AcDbEntity
  8
EbLayer9
 62
     7
100
AcDbCircle
 10
9148.952032878183
 20
1892.039852864118
 30
0.0
 40
25.01921699087665
100
AcDbArc
 50
151.7155350991591
 51
180.000000000013
1001
AcDbBlockRepETag
1070
     1
1071
       77
1005
FA3D
  0
ARC
  5
FA3E
330
F9ED
100
AcDbEntity
  8
EbLayer9
 62
     7
100
AcDbCircle
 10
9142.636243404501
 20
1892.039852864118
 30
0.0
 40
25.01921699087665
100
AcDbArc
 50
331.7155350991591
 51
0.0000000000130276
1001
AcDbBlockRepETag
1070
     1
1071
       78
1005
FA3E
  0
ARC
  5
FA3F
330
F9ED
100
AcDbEntity
  8
EbLayer9
 62
     7
100
AcDbCircle
 10
9149.109927615027
 20
1890.145116022012
 30
0.0
 40
18.47368421052628
100
AcDbArc
 50
303.2283345790473
 51
327.3722951475083
1001
AcDbBlockRepETag
1070
     1
1071
       79
1005
FA3F
  0
ARC
  5
FA40
330
F9ED
100
AcDbEntity
  8
EbLayer9
 62
     7
100
AcDbCircle
 10
9145.794138141342
 20
1901.513537074644
 30
0.0
 40
30.00000000000006
100
AcDbArc
 50
270.0
 51
296.6131799489379
1001
AcDbBlockRepETag
1070
     1
1071
       80
1005
FA40
  0
ARC
  5
FA41
330
F9ED
100
AcDbEntity
  8
EbLayer9
 62
     7
100
AcDbCircle
 10
9145.794138141342
 20
1901.513537074644
 30
0.0
 40
30.00000000000006
100
AcDbArc
 50
243.386820051062
 51
270.0
1001
AcDbBlockRepETag
1070
     1
1071
       81
1005
FA41
  0
ARC
  5
FA42
330
F9ED
100
AcDbEntity
  8
EbLayer9
 62
     7
100
AcDbCircle
 10
9142.478348667657
 20
1890.145116022012
 30
0.0
 40
18.47368421052628
100
AcDbArc
 50
212.6277048525589
 51
236.7716654209599
1001
AcDbBlockRepETag
1070
     1
1071
       82
1005
FA42
  0
ARC
  5
FA43
330
F9ED
100
AcDbEntity
  8
EbLayer9
 62
     7
100
AcDbCircle
 10
9148.952032878183
 20
1892.039852864118
 30
0.0
 40
25.01921699087665
100
AcDbArc
 50
180.0
 51
208.2844649008524
1001
AcDbBlockRepETag
1070
     1
1071
       83
1005
FA43
  0
ARC
  5
FA44
330
F9ED
100
AcDbEntity
  8
EbLayer9
 62
     7
100
AcDbCircle
 10
9145.794138141342
 20
1896.776694969381
 30
0.0
 40
10.81578947368426
100
AcDbArc
 50
42.5043300948566
 51
90.0
1001
AcDbBlockRepETag
1070
     1
1071
       84
1005
FA44
  0
ARC
  5
FA45
330
F9ED
100
AcDbEntity
  8
EbLayer9
 62
     7
100
AcDbCircle
 10
9145.162559193975
 20
1896.776694969381
 30
0.0
 40
11.28947368421053
100
AcDbArc
 50
0.0
 51
40.33812680085757
1001
AcDbBlockRepETag
1070
     1
1071
       85
1005
FA45
  0
ARC
  5
FA46
330
F9ED
100
AcDbEntity
  8
EbLayer9
 62
     7
100
AcDbCircle
 10
9123.688874983448
 20
1892.039852864118
 30
0.0
 40
33.10380927273632
100
AcDbArc
 50
0.0
 51
8.226722464103046
1001
AcDbBlockRepETag
1070
     1
1071
       86
1005
FA46
  0
ARC
  5
FA47
330
F9ED
100
AcDbEntity
  8
EbLayer9
 62
     7
100
AcDbCircle
 10
9145.794138141342
 20
1896.776694969381
 30
0.0
 40
10.81578947368426
100
AcDbArc
 50
90.0
 51
137.4956699051434
1001
AcDbBlockRepETag
1070
     1
1071
       87
1005
FA47
  0
ARC
  5
FA48
330
F9ED
100
AcDbEntity
  8
EbLayer9
 62
     7
100
AcDbCircle
 10
9146.42571708871
 20
1896.776694969381
 30
0.0
 40
11.28947368421053
100
AcDbArc
 50
139.6618731991424
 51
180.000000000013
1001
AcDbBlockRepETag
1070
     1
1071
       88
1005
FA48
  0
ARC
  5
FA49
330
F9ED
100
AcDbEntity
  8
EbLayer9
 62
     7
100
AcDbCircle
 10
9167.899401299237
 20
1892.039852864118
 30
0.0
 40
33.10380927273632
100
AcDbArc
 50
171.7732775359098
 51
180.000000000013
1001
AcDbBlockRepETag
1070
     1
1071
       89
1005
FA49
  0
ARC
  5
FA4A
330
F9ED
100
AcDbEntity
  8
EbLayer9
 62
     7
100
AcDbCircle
 10
9123.688874983448
 20
1892.039852864118
 30
0.0
 40
33.10380927273632
100
AcDbArc
 50
351.7732775359098
 51
0.0000000000130276
1001
AcDbBlockRepETag
1070
     1
1071
       90
1005
FA4A
  0
ARC
  5
FA4B
330
F9ED
100
AcDbEntity
  8
EbLayer9
 62
     7
100
AcDbCircle
 10
9145.162559193975
 20
1887.303010758854
 30
0.0
 40
11.28947368421053
100
AcDbArc
 50
319.6618731991424
 51
0.0000000000130276
1001
AcDbBlockRepETag
1070
     1
1071
       91
1005
FA4B
  0
ARC
  5
FA4C
330
F9ED
100
AcDbEntity
  8
EbLayer9
 62
     7
100
AcDbCircle
 10
9145.794138141342
 20
1887.303010758854
 30
0.0
 40
10.81578947368426
100
AcDbArc
 50
270.0
 51
317.4956699051434
1001
AcDbBlockRepETag
1070
     1
1071
       92
1005
FA4C
  0
ARC
  5
FA4D
330
F9ED
100
AcDbEntity
  8
EbLayer9
 62
     7
100
AcDbCircle
 10
9145.794138141342
 20
1887.303010758854
 30
0.0
 40
10.81578947368426
100
AcDbArc
 50
222.5043300948566
 51
270.0
1001
AcDbBlockRepETag
1070
     1
1071
       93
1005
FA4D
  0
ARC
  5
FA4E
330
F9ED
100
AcDbEntity
  8
EbLayer9
 62
     7
100
AcDbCircle
 10
9146.42571708871
 20
1887.303010758854
 30
0.0
 40
11.28947368421053
100
AcDbArc
 50
180.0
 51
220.3381268008576
1001
AcDbBlockRepETag
1070
     1
1071
       94
1005
FA4E
  0
ARC
  5
FA4F
330
F9ED
100
AcDbEntity
  8
EbLayer9
 62
     7
100
AcDbCircle
 10
9167.899401299237
 20
1892.039852864118
 30
0.0
 40
33.10380927273632
100
AcDbArc
 50
180.0
 51
188.226722464103
1001
AcDbBlockRepETag
1070
     1
1071
       95
1005
FA4F
  0
ENDBLK
  5
FA50
330
F9ED
100
AcDbEntity
  8
0
100
AcDbBlockEnd
  0
BLOCK
  5
FA54
330
FA51
100
AcDbEntity
  8
0
 62
     1
100
AcDbBlockBegin
  2
A$C07477C80
 70
     0
 10
0.0
 20
0.0
 30
0.0
  3
A$C07477C80
  1

  0
HATCH
  5
FA55
330
FA51
100
AcDbEntity
  8
0
  6
ACAD_ISO14W100
370
   100
100
AcDbHatch
 10
0.0
 20
0.0
 30
0.0
210
0.0
220
0.0
230
1.0
  2
SOLID
 70
     1
 71
     1
 91
        6
 92
       22
 72
     1
 73
     1
 93
       12
 10
3.605012510039404
 20
0.7878086777493336
 42
-0.1778486047566086
 10
3.663351598172342
 20
0.6289830982925036
 42
-0.0359112737716334
 10
3.670755373162715
 20
0.5260317662933716
 42
-0.0359112737716325
 10
3.663351598172342
 20
0.4230804342942419
 42
-0.1778486047559623
 10
3.605012510039808
 20
0.2642548548378781
 42
-0.2102576563626656
 10
3.431711101174187
 20
0.1880082262294312
 42
-0.2102576563620291
 10
3.258409692308953
 20
0.2642548548374556
 42
-0.1778486047565422
 10
3.20007060417606
 20
0.423080434294239
 42
-0.0359112737716336
 10
3.192666829185687
 20
0.5260317662933717
 42
-0.0359112737716333
 10
3.20007060417606
 20
0.6289830982925036
 42
-0.1778486047565326
 10
3.258409692308951
 20
0.7878086777492786
 42
-0.2102576563620319
 10
3.431711101174187
 20
0.8640553063573047
 42
-0.2102576563619849
 97
        1
330
FA56
 92
        7
 72
     1
 73
     1
 93
       12
 10
3.431711101174187
 20
0.9721542049564263
 42
0.1166466750109612
 10
3.139626831619087
 20
0.9030729366213469
 42
0.1057393628309454
 10
3.021496582800557
 20
0.7836977959037253
 42
0.1240446784519085
 10
2.956573404940835
 20
0.526031766293194
 42
0.1240446784519493
 10
3.021496582800796
 20
0.2683657366826355
 42
0.1057393628303306
 10
3.139626831618591
 20
0.1489905959656296
 42
0.1166466750111767
 10
3.431711101174187
 20
0.0799093276303027
 42
0.1166466750109612
 10
3.723795370729286
 20
0.1489905959653818
 42
0.1057393628309586
 10
3.841925619547845
 20
0.2683657366830037
 42
0.1240446784519152
 10
3.906848797407567
 20
0.5260317662935493
 42
0.1240446784519493
 10
3.841925619547606
 20
0.7836977959041076
 42
0.1057393628303241
 10
3.723795370729811
 20
0.9030729366210993
 42
0.1166466750111876
 97
        1
330
FA56
 92
        7
 72
     1
 73
     1
 93
       24
 10
2.33356355984975
 20
0.2652217252288054
 42
-0.4142135623730833
 10
2.285519604916805
 20
0.2171777702958622
 42
0.0
 10
2.161978006517813
 20
0.2171777702958621
 42
0.0
 10
2.161978006517812
 20
0.1142264382966971
 42
0.0
 10
2.436514891848929
 20
0.1142264382966971
 42
0.0
 10
2.711051777179989
 20
0.1142264382966971
 42
0.0
 10
2.711051777179989
 20
0.2171777702958622
 42
0.0
 10
2.587510178781002
 20
0.2171777702958622
 42
-0.4142135623731272
 10
2.539466223848052
 20
0.2652217252288072
 42
0.0
 10
2.539466223848052
 20
0.8348857622908667
 42
0.0
 10
2.614963867314116
 20
0.8348857622908667
 42
-0.2838041811045767
 10
2.749949384074011
 20
0.7515549929493073
 42
-0.1039363694935369
 10
2.770593015888338
 20
0.6731768047300774
 42
0.0
 10
2.772822576379496
 20
0.6289830982925367
 42
0.0
 10
2.882637330511982
 20
0.6289830982925366
 42
0.0
 10
2.882637330511983
 20
0.937837094290039
 42
0.0
 10
2.436514891848929
 20
0.9378370942900389
 42
0.0
 10
1.990392453185819
 20
0.9378370942900389
 42
0.0
 10
1.990392453185819
 20
0.6289830982925367
 42
0.0
 10
2.100207207318305
 20
0.6289830982925367
 42
0.0
 10
2.102436767809503
 20
0.6731768047302939
 42
-0.1039363694934613
 10
2.123080399623863
 20
0.7515549929494556
 42
-0.2838041811043758
 10
2.258065916383737
 20
0.8348857622908667
 42
0.0
 10
2.33356355984975
 20
0.8348857622908667
 42
0.0
 97
        1
330
FA56
 92
        7
 72
     1
 73
     1
 93
       12
 10
1.73340295207921
 20
0.9030729366210993
 42
0.1166466750111767
 10
1.441318682523615
 20
0.9721542049564263
 42
0.1166466750109612
 10
1.149234412968515
 20
0.9030729366213469
 42
0.1057393628309325
 10
1.031104164150013
 20
0.7836977959037253
 42
0.1240446784519118
 10
0.9661809862902636
 20
0.526031766293194
 42
0.1240446784519493
 10
1.031104164150224
 20
0.2683657366826355
 42
0.1057393628303434
 10
1.149234412968048
 20
0.1489905959656296
 42
0.1166466750111655
 10
1.441318682523615
 20
0.0799093276303027
 42
0.1166466750109611
 10
1.733402952078714
 20
0.1489905959653818
 42
0.1057393628309457
 10
1.851533200897245
 20
0.2683657366830037
 42
0.1240446784519152
 10
1.916456378756966
 20
0.5260317662935493
 42
0.1240446784519493
 10
1.851533200897005
 20
0.7836977959041076
 42
0.1057393628303241
 97
        1
330
FA56
 92
       22
 72
     1
 73
     1
 93
       12
 10
1.672959179521742
 20
0.628983098292504
 42
-0.0359112737716335
 10
1.680362954512114
 20
0.5260317662933716
 42
-0.0359112737716331
 10
1.672959179521742
 20
0.4230804342942402
 42
-0.1778486047565496
 10
1.614620091388845
 20
0.2642548548374509
 42
-0.2102576563620226
 10
1.441318682523615
 20
0.1880082262294312
 42
-0.210257656362654
 10
1.268017273658
 20
0.2642548548378702
 42
-0.1778486047561773
 10
1.20967818552546
 20
0.4230804342944359
 42
-0.0359112737715644
 10
1.202274410535115
 20
0.5260317662933717
 42
-0.0359112737715641
 10
1.20967818552546
 20
0.6289830982923065
 42
-0.1778486047561683
 10
1.268017273657999
 20
0.7878086777488642
 42
-0.2102576563626568
 10
1.441318682523615
 20
0.8640553063573047
 42
-0.2102576563620196
 10
1.614620091388843
 20
0.7878086777492872
 42
-0.177848604756544
 97
        1
330
FA56
 92
        7
 72
     1
 73
     1
 93
       24
 10
0.5490738051975086
 20
0.8348857622908665
 42
0.0
 10
0.6245714486635734
 20
0.8348857622908667
 42
-0.2838041811045305
 10
0.7595569654233895
 20
0.7515549929492219
 42
-0.1039363694933785
 10
0.7802005972377355
 20
0.673176804730122
 42
0.0
 10
0.7824301577289532
 20
0.6289830982925368
 42
0.0
 10
0.8922449118613824
 20
0.6289830982925366
 42
0.0
 10
0.8922449118613826
 20
0.937837094290039
 42
0.0
 10
0.4461224731983294
 20
0.9378370942900389
 42
0.0
 10
0.000000034535276
 20
0.9378370942900389
 42
0.0
 10
0.000000034535276
 20
0.6289830982925367
 42
0.0
 10
0.1098147886677054
 20
0.6289830982925367
 42
0.0
 10
0.1120443491589035
 20
0.6731768047302955
 42
-0.1039363694936737
 10
0.1326879809734473
 20
0.7515549929495761
 42
-0.2838041811041354
 10
0.2676734977332612
 20
0.8348857622908667
 42
0.0
 10
0.34317114119915
 20
0.8348857622908667
 42
0.0
 10
0.34317114119915
 20
0.2652217252288054
 42
-0.4142135623730833
 10
0.295127186266205
 20
0.2171777702958622
 42
0.0
 10
0.171585587867213
 20
0.2171777702958621
 42
0.0
 10
0.171585587867213
 20
0.1142264382966971
 42
0.0
 10
0.4461224731983294
 20
0.1142264382966971
 42
0.0
 10
0.7206593585294458
 20
0.1142264382966971
 42
0.0
 10
0.7206593585294457
 20
0.2171777702958622
 42
0.0
 10
0.597117760130459
 20
0.2171777702958622
 42
-0.4142135623731271
 10
0.5490738051975086
 20
0.2652217252288072
 42
0.0
 97
        1
330
FA56
 75
     0
 76
     1
 47
0.2328892723695521
 98
        6
 10
3.664643573172298
 20
0.8254197374172527
 10
3.664643573172298
 20
0.8254197374172527
 10
2.418180602075903
 20
0.8150410656279873
 10
1.732626542621661
 20
0.7839066878773551
 10
1.732626542621661
 20
0.7839066878773551
 10
0.4965522634229079
 20
0.7527723101268045
450
        0
451
        0
460
0.0
461
0.0
452
        1
462
1.0
453
        2
463
0.0
 63
     5
421
      255
463
1.0
 63
     7
421
 16777215
470
LINEAR
1001
ACAD
1010
0.0
1020
0.0
1030
0.0
  0
INSERT
  5
FA56
102
{ACAD_REACTORS
330
FA55
102
}
330
FA51
100
AcDbEntity
  8
biaozhu
 62
     7
100
AcDbBlockReference
  2
d
 10
-195.3445342935464
 20
-40.59588421047936
 30
0.0
 41
0.0217341700887133
 42
0.0217341700887133
 43
0.0217341700887133
  0
MTEXT
  5
FA57
330
FA51
100
AcDbEntity
  8
0
100
AcDbMText
 10
3.931561721859562
 20
0.3597693098304049
 30
0.0
 40
0.2715540300639768
 41
0.4073310450959652
 71
     1
 72
     5
  1
{\fArial|b0|i0|c0|p34;®}
 73
     1
 44
1.0
  0
ENDBLK
  5
FA58
330
FA51
100
AcDbEntity
  8
0
 62
     1
100
AcDbBlockEnd
  0
BLOCK
  5
10277
330
1026E
100
AcDbEntity
  8
0
 62
     7
100
AcDbBlockBegin
  2
*D8
 70
     1
 10
0.0
 20
0.0
 30
0.0
  3
*D8
  1

  0
LINE
  5
10279
330
1026E
100
AcDbEntity
  8
0
  6
Continuous
 62
     0
440
 16777216
370
    -2
100
AcDbLine
 10
-236.5495790870204
 20
-227.3517467182452
 30
0.0
 11
-235.1703498919317
 21
-227.3517467182452
 31
0.0
  0
LINE
  5
1027A
330
1026E
100
AcDbEntity
  8
0
  6
Continuous
 62
     0
440
 16777216
370
    -2
100
AcDbLine
 10
-235.1703498919317
 20
-227.3517467182452
 30
0.0
 11
-233.6936531711285
 21
-228.9144592114659
 31
0.0
  0
MTEXT
  5
1027B
330
1026E
100
AcDbEntity
  8
0
  6
Continuous
 62
     0
440
 16777216
100
AcDbMText
 10
-235.8849644894761
 20
-227.1040318478495
 30
0.0
 40
0.15
 41
0.0
 71
     5
 72
     1
  1
\A1;R1{\H1.000000x;\S1/8;}" [R30mm]
 73
     1
 44
1.0
  0
SOLID
  5
1027C
330
1026E
100
AcDbEntity
  8
0
  6
Continuous
 62
     0
440
 16777216
100
AcDbTrace
 10
-233.6512549284027
 20
-228.8743946786278
 30
0.0
 11
-233.7360514138544
 21
-228.954523744304
 31
0.0
 12
-233.4532659741
 22
-229.1688486678212
 32
0.0
 13
-233.4532659741
 23
-229.1688486678212
 33
0.0
  0
LINE
  5
1027D
330
1026E
100
AcDbEntity
  8
0
  6
Continuous
 62
     0
440
 16777216
370
    -2
100
AcDbLine
 10
-232.7420622072132
 20
-230.0273040589677
 30
0.0
 11
-232.5420622072131
 21
-230.0273040589677
 31
0.0
  0
LINE
  5
1027E
330
1026E
100
AcDbEntity
  8
0
  6
Continuous
 62
     0
440
 16777216
370
    -2
100
AcDbLine
 10
-232.6420622072132
 20
-230.1273040589677
 30
0.0
 11
-232.6420622072132
 21
-229.9273040589677
 31
0.0
  0
POINT
  5
1027F
330
1026E
100
AcDbEntity
  8
Defpoints
  6
Continuous
 62
     0
440
 16777216
100
AcDbPoint
 10
-233.4532659741
 20
-229.1688486678212
 30
0.0
  0
POINT
  5
10280
330
1026E
100
AcDbEntity
  8
Defpoints
  6
Continuous
 62
     0
440
 16777216
100
AcDbPoint
 10
-232.6420622072131
 20
-230.0273040589677
 30
0.0
  0
ENDBLK
  5
10278
330
1026E
100
AcDbEntity
  8
0
 62
     7
100
AcDbBlockEnd
  0
ENDSEC
  0
SECTION
  2
ENTITIES
  0
TEXT
  5
EA24
330
1E
100
AcDbEntity
  8
0
  6
Continuous
 62
     7
370
     0
100
AcDbText
 10
-225.9529087738633
 20
-247.1087611475535
 30
0.0
 40
0.4
  1
70# OFFSET UNCOATED SHEET
  7
BLACK
100
AcDbText
  0
TEXT
  5
EA25
330
1E
100
AcDbEntity
  8
0
  6
Continuous
 62
     7
370
     0
100
AcDbText
 10
-225.9529088770581
 20
-247.9339372737048
 30
0.0
 40
0.4
  1
BRIGHTNESS FACTOR- 86%%% OR HIGHER
  7
BLACK
100
AcDbText
  0
TEXT
  5
ED41
330
1E
100
AcDbEntity
  8
0
  6
Continuous
 62
     7
370
     0
100
AcDbText
 10
-234.0450609556921
 20
-246.6671389845684
 30
0.0
 40
0.4
  1
PAPER SIZE:   19" X 25"
  7
BLACK
100
AcDbText
  0
TEXT
  5
EDD8
330
1E
100
AcDbEntity
  8
0
  6
Continuous
 62
     7
370
     0
100
AcDbText
 10
-225.9725473158722
 20
-246.3698856805716
 30
0.0
 40
0.4
  1
PAPER SPEC:
  7
BLACK
100
AcDbText
  0
ELLIPSE
  5
EDFD
330
1E
100
AcDbEntity
  8
0
  6
Continuous
 62
     7
370
     0
100
AcDbEllipse
 10
-228.9676375007521
 20
-246.4782253749533
 30
0.0
 11
-1.478030625157209
 21
0.0590759230713899
 31
0.0
210
0.0
220
0.0
230
1.0
 40
0.317472109587829
 41
0.0
 42
6.283185307179586
  0
TEXT
  5
EE33
330
1E
100
AcDbEntity
  8
0
  6
Continuous
 62
     7
370
     0
100
AcDbText
 10
-234.0931482583238
 20
-247.5800974303538
 30
0.0
 40
0.4
  1
LINE WEIGHT: 1.00 mm
  7
BLACK
100
AcDbText
  0
INSERT
  5
F64B
330
1E
100
AcDbEntity
  8
0
 62
     7
370
    -3
100
AcDbBlockReference
  2
A$C032810D5
 10
-235.5782228175316
 20
-244.8160206332987
 30
0.0
  0
LEADER
  5
F6D9
330
1E
100
AcDbEntity
  8
GRS_GAMBAR
  6
Continuous
 62
     7
100
AcDbLeader
  3
COPY_OF_STANDARD
 76
     3
 10
-223.8632721514812
 20
-242.0649874973684
 30
0.0
 10
-222.8636494231336
 20
-243.1075831790484
 30
0.0
 10
-221.9338236536245
 20
-243.1075831790484
 30
0.0
213
-0.125
223
-0.075
233
0.0
1001
ACAD
1000
DSTYLE
1002
{
1070
   147
1040
0.05
1070
    77
1070
     0
1002
}
  0
LEADER
  5
F6DA
330
1E
100
AcDbEntity
  8
GRS_GAMBAR
 62
     7
100
AcDbLeader
  3
COPY_OF_STANDARD
 76
     3
 10
-228.4036375995898
 20
-240.4865559376145
 30
0.0
 10
-227.5192156526031
 20
-238.6207250604051
 30
0.0
 10
-226.3230900155212
 20
-238.6215310831047
 30
0.0
213
-0.1057612674020447
223
-0.1551264726113118
233
0.0
1001
ACAD
1000
DSTYLE
1002
{
1070
   147
1040
0.05
1070
    77
1070
     0
1002
}
  0
MTEXT
  5
F6DB
330
1E
100
AcDbEntity
  8
GRS_GAMBAR
  6
Continuous
 62
     7
100
AcDbMText
 10
-221.6559447711725
 20
-243.4197297169582
 30
0.0
 40
0.19685
 41
0.0
 71
     7
 72
     1
  1
RIM OF LAVATORY\PBORDE DEL LAVABO\PBORD DU LAVABO
  7
BLACK
 73
     1
 44
1.0
  0
MTEXT
  5
F6DC
330
1E
100
AcDbEntity
  8
GRS_GAMBAR
 62
     7
100
AcDbMText
 10
-226.1006484752361
 20
-238.8959791802033
 30
0.0
 40
0.19685
 41
5.792612611977559
 71
     4
 72
     5
  1
CUT ALONG THIS LINE\PCORTE A LO LARGO DE ESTA LINEA\PDECOUPER AU LONG DE CETTE LIGNE
  7
Arial Reguler
 73
     1
 44
1.0
1001
ACAD
1000
ACAD_MTEXT_DEFINED_HEIGHT_BEGIN
1070
    46
1040
1.895578545603916
1000
ACAD_MTEXT_DEFINED_HEIGHT_END
  0
LINE
  5
F6DF
330
1E
100
AcDbEntity
  8
0
  6
HIDDEN
 62
     7
370
     0
100
AcDbLine
 10
-216.4450225988891
 20
-227.3065765353293
 30
0.0
 11
-232.9890572823599
 21
-227.3065765353293
 31
0.0
  0
LINE
  5
F6E5
330
1E
100
AcDbEntity
  8
0
  6
HIDDEN
 62
     7
370
     0
100
AcDbLine
 10
-232.9890572823599
 20
-242.0649436251533
 30
0.0
 11
-216.4450225988891
 21
-242.0649436251533
 31
0.0
  0
LINE
  5
F6E9
330
1E
100
AcDbEntity
  8
0
  6
Continuous
 62
     7
370
     0
100
AcDbLine
 10
-216.7920176740363
 20
-228.8462040589674
 30
0.0
 11
-232.6420622072127
 21
-228.8462040589674
 31
0.0
  0
LINE
  5
F6EB
330
1E
100
AcDbEntity
  8
0
  6
Continuous
 62
     7
370
     0
100
AcDbLine
 10
-215.6109176740362
 20
-239.3273493663417
 30
0.0
 11
-215.6109176740363
 21
-230.0273040589674
 31
0.0
  0
LINE
  5
F6EC
330
1E
100
AcDbEntity
  8
0
  6
Continuous
 62
     7
370
     0
100
AcDbLine
 10
-232.6420622072127
 20
-240.5084493663418
 30
0.0
 11
-216.7920176740363
 21
-240.5084493663418
 31
0.0
  0
CIRCLE
  5
F6F1
330
1E
100
AcDbEntity
  8
0
  6
PHANTOM
 62
     7
370
     0
100
AcDbCircle
 10
-224.7288513575719
 20
-231.852051268565
 30
0.0
 40
0.8665923199999953
  0
LINE
  5
F6F2
330
1E
100
AcDbEntity
  8
0
  6
PHANTOM
 62
     7
370
     0
100
AcDbLine
 10
-224.7319673624684
 20
-231.8528914353293
 30
0.0
 11
-224.7257353526753
 21
-231.8528914353293
 31
0.0
  0
LINE
  5
F6F3
330
1E
100
AcDbEntity
  8
0
  6
PHANTOM
 62
     7
370
     0
100
AcDbLine
 10
-224.7257353526753
 20
-231.8528914353293
 30
0.0
 11
-222.7324093480577
 21
-231.8528914353293
 31
0.0
  0
LINE
  5
F6F4
330
1E
100
AcDbEntity
  8
0
  6
PHANTOM
 62
     7
370
     0
100
AcDbLine
 10
-224.7319673624684
 20
-231.8528914353293
 30
0.0
 11
-224.7319673624684
 21
-231.8528914353293
 31
0.0
  0
LINE
  5
F6F5
330
1E
100
AcDbEntity
  8
0
  6
PHANTOM
 62
     7
370
     0
100
AcDbLine
 10
-224.7319673624684
 20
-231.8528914353293
 30
0.0
 11
-226.52120616673
 21
-231.8528914353293
 31
0.0
  0
LINE
  5
F6F6
330
1E
100
AcDbEntity
  8
0
  6
PHANTOM
 62
     7
370
     0
100
AcDbLine
 10
-224.7375467696227
 20
-231.8504522835556
 30
0.0
 11
-224.7375467696227
 21
-233.6394755832001
 31
0.0
  0
LINE
  5
F6F7
330
1E
100
AcDbEntity
  8
0
  6
PHANTOM
 62
     7
370
     0
100
AcDbLine
 10
-224.7375467696227
 20
-231.8504522835556
 30
0.0
 11
-224.7375467696227
 21
-229.9140001824949
 31
0.0
  0
MTEXT
  5
F713
330
1E
100
AcDbEntity
  8
0
 62
     7
100
AcDbMText
 10
-216.5370340871422
 20
-244.1177071528691
 30
0.0
 40
0.15
 41
1.146242272616771
 71
     1
 72
     5
  1
LT542\P0GU141-2 May 2012
 73
     1
 44
1.0
1001
ACAD
1000
ACAD_MTEXT_DEFINED_HEIGHT_BEGIN
1070
    46
1040
0.8005150133580514
1000
ACAD_MTEXT_DEFINED_HEIGHT_END
  0
HATCH
  5
F747
330
1E
100
AcDbEntity
  8
GRS_GAMBAR
  6
Continuous
 62
     7
100
AcDbHatch
 10
0.0
 20
0.0
 30
0.0
210
0.0
220
0.0
230
1.0
  2
SOLID
 70
     1
 71
     0
 91
        3
 92
        7
 72
     1
 73
     1
 93
        6
 10
-214.7771582224589
 20
-244.2652290897775
 42
0.0538162151448568
 10
-214.7878283980393
 20
-244.2640772970434
 42
0.0
 10
-214.8262934102861
 20
-244.2640772970434
 42
0.2224858420931003
 10
-214.8646923891281
 20
-244.2820535804588
 42
0.0
 10
-214.9142041500436
 20
-244.3604950233918
 42
0.0
 10
-214.8588108868593
 20
-244.3919860815013
 42
0.0
 97
        0
 92
        7
 72
     1
 73
     1
 93
        6
 10
-214.9845209644305
 20
-244.5078870946452
 42
0.0538162151447157
 10
-214.980183358408
 20
-244.5177036341277
 42
0.0
 10
-214.9609508522846
 20
-244.5510153118903
 42
0.2224858420931016
 10
-214.9261834447603
 20
-244.5752816613392
 42
0.0
 10
-214.8334952820131
 20
-244.5789393826116
 42
0.0
 10
-214.8339198572903
 20
-244.5152218804409
 42
0.0
 97
        0
 92
        7
 72
     1
 73
     1
 93
        6
 10
-214.6706915967977
 20
-244.5661394945572
 42
0.0538162151447725
 10
-214.6643590272399
 20
-244.5574747478088
 42
0.0
 10
-214.6451265211164
 20
-244.5241630700462
 42
0.2224858420932238
 10
-214.6414949497988
 20
-244.481920437182
 42
0.0
 10
-214.6846713516305
 20
-244.3998212729766
 42
0.0
 10
-214.7396400395376
 20
-244.4320477170378
 42
0.0
 97
        0
 75
     0
 76
     1
 47
0.0016683594679917
 98
        6
 10
-214.8497779387255
 20
-244.331238183929
 10
-214.883170653605
 20
-244.5431198945269
 10
-214.6911622909157
 20
-244.4630385829886
 10
-214.8314118502918
 20
-244.3145545882817
 10
-214.9098848927438
 20
-244.5447881951063
 10
-214.6761355524112
 20
-244.4847272769918
450
        0
451
        0
460
0.0
461
0.0
452
        1
462
1.0
453
        2
463
0.0
 63
     5
421
      255
463
1.0
 63
     7
421
 16777215
470
LINEAR
1001
ACAD
1010
0.0
1020
0.0
1030
0.0
  0
LINE
  5
F748
330
1E
100
AcDbEntity
  8
GRS_GAMBAR
  6
Continuous
 62
     7
100
AcDbLine
 10
-214.9142041500435
 20
-244.3604950233917
 30
0.0
 11
-214.8646923891281
 21
-244.2820535804588
 31
0.0
  0
ARC
  5
F749
330
1E
100
AcDbEntity
  8
GRS_GAMBAR
  6
Continuous
 62
     7
100
AcDbCircle
 10
-214.8262934102861
 20
-244.3140772970434
 30
0.0
 40
0.05
100
AcDbArc
 50
90.0
 51
140.172801681986
  0
LINE
  5
F74A
330
1E
100
AcDbEntity
  8
GRS_GAMBAR
  6
Continuous
 62
     7
100
AcDbLine
 10
-214.8262934102861
 20
-244.2640772970434
 30
0.0
 11
-214.7878283980393
 21
-244.2640772970434
 31
0.0
  0
HATCH
  5
F74B
330
1E
100
AcDbEntity
  8
GRS_GAMBAR
  6
Continuous
 62
     7
100
AcDbHatch
 10
0.0
 20
0.0
 30
0.0
210
0.0
220
0.0
230
1.0
  2
SOLID
 70
     1
 71
     0
 91
        3
 92
        7
 72
     1
 73
     1
 93
        8
 10
-214.7533601121225
 20
-244.2778566224781
 42
0.1372409655517383
 10
-214.7771582224589
 20
-244.2652290897775
 42
0.0
 10
-214.8082686774547
 20
-244.313524729796
 42
0.0
 10
-214.759794899162
 20
-244.3608247011362
 42
0.0
 10
-214.7816951043327
 20
-244.3746458055389
 42
0.0
 10
-214.7160137617607
 20
-244.3744090921609
 42
0.0
 10
-214.6963999138767
 20
-244.3136027509832
 42
0.0
 10
-214.7135824384447
 20
-244.3253513472626
 42
0.0
 97
        0
 92
        7
 72
     1
 73
     1
 93
        8
 10
-214.9104143981521
 20
-244.4450522098966
 42
0.0
 10
-214.8874948680456
 20
-244.4571077917213
 42
0.0
 10
-214.9205405391304
 20
-244.4003444371882
 42
0.0
 10
-214.9830072992435
 20
-244.4137615172434
 42
0.0
 10
-214.9642414541226
 20
-244.4227677218809
 42
0.0
 10
-214.985484255493
 20
-244.4809635601817
 42
0.1372409655515571
 10
-214.9845209644305
 20
-244.5078870946452
 42
0.0
 10
-214.9271404857846
 20
-244.5106817189856
 42
0.0
 97
        0
 92
        7
 72
     1
 73
     1
 93
        8
 10
-214.6935264160721
 20
-244.5804354963204
 42
0.137240965553842
 10
-214.6706915967977
 20
-244.5661394945572
 42
0.0
 10
-214.6969616204478
 20
-244.5150492301983
 42
0.0
 10
-214.762161486373
 20
-244.5333787679472
 42
0.0
 10
-214.7631808113088
 20
-244.5075020817198
 42
0.0
 10
-214.795816482796
 20
-244.5645021496308
 42
0.0
 10
-214.752963570567
 20
-244.6118914107533
 42
0.0
 10
-214.7545468911198
 20
-244.5911366098363
 42
0.0
 97
        0
 75
     0
 76
     1
 47
0.0016683594679917
 98
        3
 10
-214.7462603320992
 20
-244.3245647849936
 10
-214.9349294569181
 20
-244.44802335346
 10
-214.7362425064295
 20
-244.5614717907537
450
        0
451
        0
460
0.0
461
0.0
452
        1
462
1.0
453
        2
463
0.0
 63
     5
421
      255
463
1.0
 63
     7
421
 16777215
470
LINEAR
1001
ACAD
1010
0.0
1020
0.0
1030
0.0
  0
ARC
  5
F74C
330
1E
100
AcDbEntity
  8
GRS_GAMBAR
  6
Continuous
 62
     7
100
AcDbCircle
 10
-214.7878283980392
 20
-244.3140772970434
 30
0.0
 40
0.05
100
AcDbArc
 50
33.47346237047435
 51
90.00000000002442
  0
LINE
  5
F74D
330
1E
100
AcDbEntity
  8
GRS_GAMBAR
  6
Continuous
 62
     7
100
AcDbLine
 10
-214.7461213294032
 20
-244.2864997622407
 30
0.0
 11
-214.7135824384448
 21
-244.3253513472627
 31
0.0
  0
LINE
  5
F74E
330
1E
100
AcDbEntity
  8
GRS_GAMBAR
  6
Continuous
 62
     7
100
AcDbLine
 10
-214.7135824384448
 20
-244.3253513472627
 30
0.0
 11
-214.6963999138767
 21
-244.3136027509832
 31
0.0
  0
LINE
  5
F74F
330
1E
100
AcDbEntity
  8
GRS_GAMBAR
  6
Continuous
 62
     7
100
AcDbLine
 10
-214.6963999138767
 20
-244.3136027509832
 30
0.0
 11
-214.7160137617607
 21
-244.3744090921609
 31
0.0
  0
LINE
  5
F750
330
1E
100
AcDbEntity
  8
GRS_GAMBAR
  6
Continuous
 62
     7
100
AcDbLine
 10
-214.7160137617607
 20
-244.3744090921609
 30
0.0
 11
-214.7816951043328
 21
-244.3746458055389
 31
0.0
  0
LINE
  5
F751
330
1E
100
AcDbEntity
  8
GRS_GAMBAR
  6
Continuous
 62
     7
100
AcDbLine
 10
-214.7816951043328
 20
-244.3746458055389
 30
0.0
 11
-214.759794899162
 21
-244.3608247011362
 31
0.0
  0
LINE
  5
F752
330
1E
100
AcDbEntity
  8
GRS_GAMBAR
  6
Continuous
 62
     7
100
AcDbLine
 10
-214.759794899162
 20
-244.3608247011362
 30
0.0
 11
-214.8082686774547
 21
-244.313524729796
 31
0.0
  0
LINE
  5
F753
330
1E
100
AcDbEntity
  8
GRS_GAMBAR
  6
Continuous
 62
     7
370
    30
100
AcDbLine
 10
-214.7771582224589
 20
-244.2652290897776
 30
0.0
 11
-214.8588108868593
 21
-244.3919860815013
 31
0.0
  0
LINE
  5
F754
330
1E
100
AcDbEntity
  8
GRS_GAMBAR
  6
Continuous
 62
     7
100
AcDbLine
 10
-214.8588108868593
 20
-244.3919860815013
 30
0.0
 11
-214.9142041500435
 21
-244.3604950233917
 31
0.0
  0
LINE
  5
F755
330
1E
100
AcDbEntity
  8
GRS_GAMBAR
  6
Continuous
 62
     7
100
AcDbLine
 10
-214.8334952820131
 20
-244.5789393826116
 30
0.0
 11
-214.9261834447603
 21
-244.5752816613392
 31
0.0
  0
ARC
  5
F756
330
1E
100
AcDbEntity
  8
GRS_GAMBAR
  6
Continuous
 62
     7
100
AcDbCircle
 10
-214.9176495820954
 20
-244.5260153118903
 30
0.0
 40
0.05
100
AcDbArc
 50
209.9999999999996
 51
260.172801681987
  0
LINE
  5
F757
330
1E
100
AcDbEntity
  8
GRS_GAMBAR
  6
Continuous
 62
     7
100
AcDbLine
 10
-214.9609508522846
 20
-244.5510153118903
 30
0.0
 11
-214.980183358408
 21
-244.5177036341277
 31
0.0
  0
ARC
  5
F758
330
1E
100
AcDbEntity
  8
GRS_GAMBAR
  6
Continuous
 62
     7
100
AcDbCircle
 10
-214.9368820882188
 20
-244.4927036341277
 30
0.0
 40
0.05
100
AcDbArc
 50
153.4734623704714
 51
210.0000000000261
  0
LINE
  5
F759
330
1E
100
AcDbEntity
  8
GRS_GAMBAR
  6
Continuous
 62
     7
100
AcDbLine
 10
-214.9816184682497
 20
-244.4703730205728
 30
0.0
 11
-214.9642414541226
 21
-244.4227677218809
 31
0.0
  0
LINE
  5
F75A
330
1E
100
AcDbEntity
  8
GRS_GAMBAR
  6
Continuous
 62
     7
100
AcDbLine
 10
-214.9642414541226
 20
-244.4227677218809
 30
0.0
 11
-214.9830072992435
 21
-244.4137615172435
 31
0.0
  0
LINE
  5
F75B
330
1E
100
AcDbEntity
  8
GRS_GAMBAR
  6
Continuous
 62
     7
100
AcDbLine
 10
-214.9830072992435
 20
-244.4137615172435
 30
0.0
 11
-214.9205405391304
 21
-244.4003444371882
 31
0.0
  0
LINE
  5
F75C
330
1E
100
AcDbEntity
  8
GRS_GAMBAR
  6
Continuous
 62
     7
100
AcDbLine
 10
-214.9205405391304
 20
-244.4003444371882
 30
0.0
 11
-214.8874948680456
 21
-244.4571077917212
 31
0.0
  0
LINE
  5
F75D
330
1E
100
AcDbEntity
  8
GRS_GAMBAR
  6
Continuous
 62
     7
100
AcDbLine
 10
-214.8874948680456
 20
-244.4571077917212
 30
0.0
 11
-214.9104143981521
 21
-244.4450522098966
 31
0.0
  0
LINE
  5
F75E
330
1E
100
AcDbEntity
  8
GRS_GAMBAR
  6
Continuous
 62
     7
100
AcDbLine
 10
-214.9104143981521
 20
-244.4450522098966
 30
0.0
 11
-214.9271404857846
 21
-244.5106817189856
 31
0.0
  0
LINE
  5
F75F
330
1E
100
AcDbEntity
  8
GRS_GAMBAR
  6
Continuous
 62
     7
370
    30
100
AcDbLine
 10
-214.9845209644305
 20
-244.5078870946452
 30
0.0
 11
-214.8339198572903
 21
-244.5152218804408
 31
0.0
  0
LINE
  5
F760
330
1E
100
AcDbEntity
  8
GRS_GAMBAR
  6
Continuous
 62
     7
100
AcDbLine
 10
-214.8339198572903
 20
-244.5152218804408
 30
0.0
 11
-214.8334952820131
 21
-244.5789393826116
 31
0.0
  0
LINE
  5
F761
330
1E
100
AcDbEntity
  8
GRS_GAMBAR
  6
Continuous
 62
     7
100
AcDbLine
 10
-214.6846713516305
 20
-244.3998212729766
 30
0.0
 11
-214.6414949497988
 21
-244.481920437182
 31
0.0
  0
ARC
  5
F762
330
1E
100
AcDbEntity
  8
GRS_GAMBAR
  6
Continuous
 62
     7
100
AcDbCircle
 10
-214.6884277913057
 20
-244.4991630700462
 30
0.0
 40
0.05
100
AcDbArc
 50
330.0000000000005
 51
20.17280168198317
  0
LINE
  5
F763
330
1E
100
AcDbEntity
  8
GRS_GAMBAR
  6
Continuous
 62
     7
100
AcDbLine
 10
-214.6451265211164
 20
-244.5241630700462
 30
0.0
 11
-214.6643590272399
 21
-244.5574747478088
 31
0.0
  0
ARC
  5
F764
330
1E
100
AcDbEntity
  8
GRS_GAMBAR
  6
Continuous
 62
     7
100
AcDbCircle
 10
-214.7076602974291
 20
-244.5324747478089
 30
0.0
 40
0.05
100
AcDbArc
 50
273.4734623704736
 51
330.0000000000227
  0
LINE
  5
F765
330
1E
100
AcDbEntity
  8
GRS_GAMBAR
  6
Continuous
 62
     7
100
AcDbLine
 10
-214.7046309860343
 20
-244.5823828961664
 30
0.0
 11
-214.7545468911198
 21
-244.5911366098364
 31
0.0
  0
LINE
  5
F766
330
1E
100
AcDbEntity
  8
GRS_GAMBAR
  6
Continuous
 62
     7
100
AcDbLine
 10
-214.7545468911198
 20
-244.5911366098364
 30
0.0
 11
-214.7529635705669
 21
-244.6118914107532
 31
0.0
  0
LINE
  5
F767
330
1E
100
AcDbEntity
  8
GRS_GAMBAR
  6
Continuous
 62
     7
100
AcDbLine
 10
-214.7529635705669
 20
-244.6118914107532
 30
0.0
 11
-214.795816482796
 21
-244.5645021496309
 31
0.0
  0
LINE
  5
F768
330
1E
100
AcDbEntity
  8
GRS_GAMBAR
  6
Continuous
 62
     7
100
AcDbLine
 10
-214.795816482796
 20
-244.5645021496309
 30
0.0
 11
-214.7631808113088
 21
-244.5075020817198
 31
0.0
  0
LINE
  5
F769
330
1E
100
AcDbEntity
  8
GRS_GAMBAR
  6
Continuous
 62
     7
100
AcDbLine
 10
-214.7631808113088
 20
-244.5075020817198
 30
0.0
 11
-214.762161486373
 21
-244.5333787679472
 31
0.0
  0
LINE
  5
F76A
330
1E
100
AcDbEntity
  8
GRS_GAMBAR
  6
Continuous
 62
     7
100
AcDbLine
 10
-214.762161486373
 20
-244.5333787679472
 30
0.0
 11
-214.6969616204478
 21
-244.5150492301984
 31
0.0
  0
LINE
  5
F76B
330
1E
100
AcDbEntity
  8
GRS_GAMBAR
  6
Continuous
 62
     7
370
    30
100
AcDbLine
 10
-214.6706915967977
 20
-244.5661394945572
 30
0.0
 11
-214.7396400395376
 21
-244.4320477170378
 31
0.0
  0
LINE
  5
F76C
330
1E
100
AcDbEntity
  8
GRS_GAMBAR
  6
Continuous
 62
     7
100
AcDbLine
 10
-214.7396400395376
 20
-244.4320477170378
 30
0.0
 11
-214.6846713516305
 21
-244.3998212729766
 31
0.0
  0
MTEXT
  5
F76D
330
1E
100
AcDbEntity
  8
GRS_GAMBAR
  6
Continuous
 62
     7
100
AcDbMText
 10
-214.9517829051617
 20
-244.6594567422056
 30
0.0
 40
0.05
 41
0.4673540343153775
 71
     1
 72
     5
  1
Recycled
 73
     1
 44
1.0
  0
LINE
  5
F771
330
1E
100
AcDbEntity
  8
0
  6
Continuous
 62
     5
100
AcDbLine
 10
-237.2170399406245
 20
-226.3332866557505
 30
0.0
 11
-212.2170399406245
 21
-226.3332866557505
 31
0.0
  0
LINE
  5
F772
330
1E
100
AcDbEntity
  8
0
  6
Continuous
 62
     5
100
AcDbLine
 10
-212.2170399406245
 20
-226.3332866557505
 30
0.0
 11
-212.2170399406245
 21
-245.3332866557505
 31
0.0
  0
LINE
  5
F773
330
1E
100
AcDbEntity
  8
0
  6
Continuous
 62
     5
100
AcDbLine
 10
-212.2170399406245
 20
-245.3332866557505
 30
0.0
 11
-237.2170399406245
 21
-245.3332866557505
 31
0.0
  0
LINE
  5
F774
330
1E
100
AcDbEntity
  8
0
  6
Continuous
 62
     5
100
AcDbLine
 10
-237.2170399406245
 20
-245.3332866557505
 30
0.0
 11
-237.2170399406245
 21
-226.3332866557505
 31
0.0
  0
MTEXT
  5
F8F3
330
1E
100
AcDbEntity
  8
0
 62
     7
370
    -3
100
AcDbMText
 10
-231.417932489878
 20
-248.5324352913918
 30
0.0
 40
0.3111961731396883
 41
0.0
 71
     1
 72
     1
  1
TEMPLATE PART NUMBER VISIBLE AFTER FINAL FOLD
  7
BLACK
 73
     1
 44
1.0
  0
MTEXT
  5
F8FC
330
1E
100
AcDbEntity
  8
0
  6
Continuous
 62
     7
100
AcDbMText
 10
-232.8443066735375
 20
-232.9336204309387
 30
0.0
 40
0.19685
 41
5.792612611977559
 71
     4
 72
     5
  1
{\C256;MOUNTING HOLE ( 4 PLACES )\PAGUJERO DE MONTAJE ( 4 LUGARES )\PTROU POUR MONTAGE ( 4 ENROITS )}
  7
Arial Reguler
 73
     1
 44
1.0
1001
ACAD
1000
ACAD_MTEXT_DEFINED_HEIGHT_BEGIN
1070
    46
1040
0.7284312192781519
1000
ACAD_MTEXT_DEFINED_HEIGHT_END
  0
LEADER
  5
F8FD
330
1E
100
AcDbEntity
  8
0
  6
Continuous
 62
     7
100
AcDbLeader
  3
STANDARD
 76
     2
 10
-235.7499981694379
 20
-231.0450893476889
 30
0.0
 10
-233.0714159355846
 20
-232.8064571976401
 30
0.0
  0
MTEXT
  5
F905
330
1E
100
AcDbEntity
  8
0
  6
Continuous
 62
     7
100
AcDbMText
 10
-232.8531046817707
 20
-235.3896789545094
 30
0.0
 40
0.19685
 41
5.792612611977559
 71
     4
 72
     5
  3
\A1;FOR ANCHOR APPLICATION\PPARA EL APLICACION DE LA ANCLA\PPOUR TIGE D'ANCRAGE\PDRILL %%C{\H0.7x;\S3/8;}"  X  {\H0.7x;\S5/8;}" DEEP\PTALADRO %%C{\H0.7x;\S3/8;}" X {\H0.7x;\S5/8;}" PROFUNDAMENTE\PFORET %%C{\H0.7x;\S3/8;}" X {\H0.7x;\S5/8;}" PROFONDEM
  1
ENT
  7
Arial Reguler
 73
     1
 44
1.0
1001
ACAD
1000
ACAD_MTEXT_DEFINED_HEIGHT_BEGIN
1070
    46
1040
1.441822596239947
1000
ACAD_MTEXT_DEFINED_HEIGHT_END
  0
DIMENSION
  5
F933
330
1E
100
AcDbEntity
  8
0
  6
Continuous
 62
     7
100
AcDbDimension
  2
*D2
 10
-233.8231622072127
 20
-237.5392960405732
 30
0.0
 11
-221.4928514884734
 21
-237.5392960405732
 31
0.0
 70
   160
 71
     5
 42
18.21224453317643
  3
COPY_OF_STANDARD
100
AcDbAlignedDimension
 13
-215.6109176740363
 23
-236.9305587929318
 33
0.0
 14
-233.8231622072127
 24
-236.9305587929318
 34
0.0
100
AcDbRotatedDimension
1001
ACAD
1000
DSTYLE
1002
{
1070
   271
1070
     6
1002
}
  0
DIMENSION
  5
F940
330
1E
100
AcDbEntity
  8
0
  6
Continuous
 62
     7
100
AcDbDimension
  2
*D3
 10
-220.2052186459932
 20
-240.5084493663418
 30
0.0
 11
-220.2052186459932
 21
-235.1389204267193
 31
0.0
 70
   160
 71
     5
 42
11.6622453073744
  3
COPY_OF_STANDARD
100
AcDbAlignedDimension
 13
-224.7170399406245
 23
-228.8462040589674
 33
0.0
 14
-225.0129960293734
 24
-240.5084493663418
 34
0.0
 50
90.0
100
AcDbRotatedDimension
1001
ACAD
1000
DSTYLE
1002
{
1070
   271
1070
     6
1002
}
  0
INSERT
  5
F99D
330
1E
100
AcDbEntity
  8
ASHADE
  6
Continuous
 62
     1
100
AcDbBlockReference
  2
AVE_RENDER
 10
0.0
 20
0.0
 30
0.0
1001
AVE_RENDER
1002
{
1070
     7
1000
Pref
1070
    50
1070
    20
1070
     1
1070
     0
1000

1070
    10
1070
     1
1070
    10
1040
1.0
1070
     1
1040
0.7
1040
1.0
1040
0.0
1040
10.0
1010
-1.0
1020
-1.0
1030
-1.0
1040
0.3
1070
    49
1070
     0
1070
     0
1010
1.0
1020
1.0
1030
1.0
1040
45.0
1070
     1
1070
     0
1000
WCS
1040
0.0
1070
     0
1040
10.0
1002
}
  0
INSERT
  5
F99E
330
1E
100
AcDbEntity
  8
ASHADE
  6
Continuous
 62
     3
100
AcDbBlockReference
  2
AVE_RENDER
 10
0.0
 20
0.0
 30
0.0
1001
AVE_RENDER
1002
{
1070
     0
1000
Full Opt
1070
     0
1070
     1
1070
     1
1070
     1
1070
     0
1070
     0
1070
     0
1070
     1
1070
     1
1040
0.0001
1040
0.0001
1002
}
  0
INSERT
  5
F99F
330
1E
100
AcDbEntity
  8
ASHADE
  6
Continuous
 62
     4
100
AcDbBlockReference
  2
AVE_RENDER
 10
0.0
 20
0.0
 30
0.0
1001
AVE_RENDER
1002
{
1070
     0
1000
Quick Opt
1070
     0
1070
     1
1070
     1
1070
     1
1070
     0
1070
     0
1070
     1
1002
}
  0
INSERT
  5
F9A0
330
1E
100
AcDbEntity
  8
ASHADE
  6
Continuous
 62
     5
100
AcDbBlockReference
  2
AVE_RENDER
 10
0.0
 20
0.0
 30
0.0
1001
AVE_RENDER
1002
{
1070
     1
1000
Scanl Opt
1070
     2
1070
     0
1070
     2
1040
2.0
1040
4.0
1070
     0
1070
     1
1070
     0
1040
0.03
1002
}
  0
INSERT
  5
F9A1
330
1E
100
AcDbEntity
  8
ASHADE
  6
Continuous
 62
     6
100
AcDbBlockReference
  2
AVE_RENDER
 10
0.0
 20
0.0
 30
0.0
1001
AVE_RENDER
1002
{
1070
     2
1000
Raytr Opt
1070
     2
1070
     0
1070
     2
1040
2.0
1040
4.0
1070
     0
1070
     1
1070
     1
1040
0.03
1070
     3
1040
0.03
1002
}
  0
INSERT
  5
F9A2
330
1E
100
AcDbEntity
  8
ASHADE
  6
Continuous
 62
     7
100
AcDbBlockReference
  2
AVE_RENDER
 10
0.0
 20
0.0
 30
0.0
1001
AVE_RENDER
1002
{
1070
     0
1000
RFile Opt
1070
     1
1070
   640
1070
   480
1070
 10000
1070
     1
1070
     8
1070
     8
1070
     0
1070
     0
1070
     0
1070
     1
1070
     0
1070
     0
1070
     0
1002
}
  0
INSERT
  5
F9A3
330
1E
100
AcDbEntity
  8
ASHADE
  6
Continuous
 62
     8
100
AcDbBlockReference
  2
AVE_RENDER
 10
0.0
 20
0.0
 30
0.0
1001
AVE_RENDER
1002
{
1070
     0
1000
Fog Opt
1070
     0
1070
     0
1040
0.0
1040
1.0
1040
0.0
1040
1.0
1010
0.5
1020
0.5
1030
0.5
1002
}
  0
INSERT
  5
F9A4
330
1E
100
AcDbEntity
  8
ASHADE
  6
Continuous
 62
     9
100
AcDbBlockReference
  2
AVE_RENDER
 10
0.0
 20
0.0
 30
0.0
1001
AVE_RENDER
1002
{
1070
     0
1000
BG Opt
1070
     0
1070
     1
1010
1.0
1020
1.0
1030
1.0
1010
1.0
1020
0.0
1030
0.0
1010
0.0
1020
1.0
1030
0.0
1010
0.0
1020
0.0
1030
1.0
1040
0.5
1040
0.33
1040
0.0
1000

1070
     1
1000

1070
     1
1070
     1
1040
1.0
1040
1.0
1040
0.0
1040
0.0
1070
     0
1002
}
  0
INSERT
  5
F9A8
330
1E
100
AcDbEntity
  8
ASHADE
  6
Continuous
 62
     1
100
AcDbBlockReference
  2
AVE_GLOBAL
 10
0.0
 20
0.0
 30
0.0
1001
AVE_MATERIAL
1002
{
1000
*GLOBAL*
1000
2
1000
Global finish.
1002
{
1002
}
1002
{
1070
    63
1002
{
1002
{
1010
-1.0
1020
-1.0
1030
-1.0
1002
}
1040
0.6999999880790711
1000

1040
0.0
1002
{
1002
}
1040
0.0
1002
{
1002
}
1040
0.0
1002
}
1002
{
1002
{
1010
-1.0
1020
-1.0
1030
-1.0
1002
}
1040
1.0
1000

1040
0.0
1002
{
1002
}
1040
0.0
1002
{
1002
}
1040
0.0
1002
}
1002
{
1002
{
1010
-1.0
1020
-1.0
1030
-1.0
1002
}
1040
0.2000000029802322
1000

1040
0.0
1002
{
1002
}
1040
0.0
1002
{
1002
}
1040
0.0
1002
}
1002
{
1070
     0
1002
{
1070
     1
1002
{
1040
1.0
1040
1.0
1000

1040
0.0
1002
{
1002
}
1040
0.0
1002
{
1002
}
1040
0.0
1002
}
1002
}
1040
1.0
1040
0.0
1040
0.0
1002
}
1002
{
1040
1.0
1040
1.0
1000

1040
0.0
1002
{
1002
}
1040
0.0
1002
{
1002
}
1040
0.0
1002
}
1002
{
1040
0.5
1040
1.0
1000

1040
0.0
1002
{
1002
}
1040
0.0
1002
{
1002
}
1040
0.0
1002
}
1002
{
1070
     0
1040
0.0
1002
{
1002
}
1040
1.0
1002
{
1002
}
1040
0.0
1002
}
1002
{
1040
0.0
1002
{
1002
{
1010
0.0
1020
0.0
1030
0.0
1002
}
1040
1.0
1000

1040
0.0
1002
{
1002
}
1040
0.0
1002
{
1002
}
1040
0.0
1002
}
1002
}
1002
{
1002
{
1070
     1
1002
{
1040
0.0
1040
1.0
1000

1040
0.0
1002
{
1002
}
1040
0.0
1002
{
1002
}
1040
0.0
1002
}
1002
}
1040
0.0
1002
{
1002
}
1010
1.0
1020
0.0
1030
0.0
1010
0.0
1020
1.0
1030
0.0
1010
0.0
1020
0.0
1030
1.0
1070
     0
1002
}
1002
{
1002
{
1040
1.0
1040
1.0
1002
{
1070
     1
1002
{
1040
1.0
1040
1.0
1000

1040
0.0
1002
{
1002
}
1040
0.0
1002
{
1002
}
1040
0.0
1002
}
1002
}
1002
}
1070
     0
1040
0.0
1002
{
1002
}
1002
}
1002
{
1002
}
1002
}
1002
{
1071
        3
1070
     3
1070
     0
1002
{
1070
     2
1070
     0
1070
     0
1040
0.0
1002
}
1070
     0
1070
     2
1002
{
1002
}
1002
}
1002
{
1040
8030.0
1040
190.3000030517578
1040
0.3050000071525574
1040
228.0
1040
545.0
1040
14.0
1040
17.39999961853027
1040
0.4560000002384186
1002
}
1000

1002
}
  0
INSERT
  5
FA6B
330
1E
100
AcDbEntity
  8
0
 62
     7
370
    -3
100
AcDbBlockReference
  2
A$C07477C80
 10
-217.3759511802735
 20
-243.7742550495245
 30
0.0
  0
ARC
  5
FAA3
330
1E
100
AcDbEntity
  8
0
  6
Continuous
 62
     7
100
AcDbCircle
 10
-232.6420622072127
 20
-230.0273040589674
 30
0.0
 40
1.1811
100
AcDbArc
 50
90.0
 51
180.0
  0
LINE
  5
FAA5
330
1E
100
AcDbEntity
  8
0
  6
Continuous
 62
     7
370
     0
100
AcDbLine
 10
-233.8231622072127
 20
-230.0273040589674
 30
0.0
 11
-233.8231622072127
 21
-239.3273493663417
 31
0.0
  0
ARC
  5
FABC
330
1E
100
AcDbEntity
  8
0
  6
Continuous
 62
     7
100
AcDbCircle
 10
-216.7920176740363
 20
-230.0273040589674
 30
0.0
 40
1.1811
100
AcDbArc
 50
0.0
 51
90.0
  0
ARC
  5
FABD
330
1E
100
AcDbEntity
  8
0
  6
Continuous
 62
     7
100
AcDbCircle
 10
-232.6420622072127
 20
-239.3273493663417
 30
0.0
 40
1.1811
100
AcDbArc
 50
180.0
 51
270.0
  0
ARC
  5
FABE
330
1E
100
AcDbEntity
  8
0
  6
Continuous
 62
     7
100
AcDbCircle
 10
-216.7920176740363
 20
-239.3273493663417
 30
0.0
 40
1.1811
100
AcDbArc
 50
270.0
 51
0.0
  0
LINE
  5
FD71
330
1E
100
AcDbEntity
  8
0
  6
HIDDEN
 62
     7
370
     0
100
AcDbLine
 10
-214.0881355068039
 20
-239.8021488476892
 30
0.0
 11
-214.088135506804
 21
-229.5693718786278
 31
0.0
  0
LINE
  5
FD72
330
1E
100
AcDbEntity
  8
0
  6
HIDDEN
 62
     7
370
     0
100
AcDbLine
 10
-235.345944374445
 20
-229.663463920897
 30
0.0
 11
-235.345944374445
 21
-239.8021488476892
 31
0.0
  0
CIRCLE
  5
FD8E
330
1E
100
AcDbEntity
  8
0
  6
Continuous
 62
     7
370
     0
100
AcDbCircle
 10
-213.5792048122396
 20
-231.0450893476889
 30
0.0
 40
0.0787400000000001
  0
LINE
  5
FD8F
330
1E
100
AcDbEntity
  8
0
  6
Continuous
 62
     7
370
     0
100
AcDbLine
 10
-213.5792048122396
 20
-231.0450893476889
 30
0.0
 11
-213.5792048122396
 21
-231.1637170631401
 31
0.0
  0
LINE
  5
FD90
330
1E
100
AcDbEntity
  8
0
  6
Continuous
 62
     7
370
     0
100
AcDbLine
 10
-213.5792048122396
 20
-231.0450893476889
 30
0.0
 11
-213.5792048122396
 21
-230.9264616322378
 31
0.0
  0
LINE
  5
FD91
330
1E
100
AcDbEntity
  8
0
  6
Continuous
 62
     7
370
     0
100
AcDbLine
 10
-213.5792048122396
 20
-231.0450893476889
 30
0.0
 11
-213.7014725359127
 21
-231.0450893476889
 31
0.0
  0
LINE
  5
FD92
330
1E
100
AcDbEntity
  8
0
  6
Continuous
 62
     7
370
     0
100
AcDbLine
 10
-213.4569370885664
 20
-231.0450893476889
 30
0.0
 11
-213.5792048122396
 21
-231.0450893476889
 31
0.0
  0
LINE
  5
FDC5
330
1E
100
AcDbEntity
  8
0
  6
Continuous
 62
     7
100
AcDbLine
 10
-235.345944374445
 20
-229.663463920897
 30
0.0
 11
-235.345944374445
 21
-229.5802177113098
 31
0.0
  0
ARC
  5
FDD0
330
1E
100
AcDbEntity
  8
0
  6
HIDDEN
 62
     7
370
     0
100
AcDbCircle
 10
-233.2209443744451
 20
-229.4315765353293
 30
0.0
 40
2.125
100
AcDbArc
 50
90.00000000000076
 51
179.9999999999992
  0
LINE
  5
FE00
330
1E
100
AcDbEntity
  8
0
  6
HIDDEN
 62
     7
370
     0
100
AcDbLine
 10
-216.4450225988891
 20
-227.3065765353293
 30
0.0
 11
-216.2131357650686
 21
-227.3065765353293
 31
0.0
  0
ARC
  5
FE01
330
1E
100
AcDbEntity
  8
0
  6
HIDDEN
 62
     7
370
     0
100
AcDbCircle
 10
-216.2131357650686
 20
-229.4315765353292
 30
0.0
 40
2.125
100
AcDbArc
 50
0.0000000000001018
 51
89.99999999999932
  0
CIRCLE
  5
FE16
330
1E
100
AcDbEntity
  8
0
  6
Continuous
 62
     7
370
     0
100
AcDbCircle
 10
-235.8722658931111
 20
-231.0450893476889
 30
0.0
 40
0.07874
  0
LINE
  5
FE17
330
1E
100
AcDbEntity
  8
0
  6
Continuous
 62
     7
370
     0
100
AcDbLine
 10
-235.8722658931111
 20
-231.0450893476889
 30
0.0
 11
-235.8722658931111
 21
-231.1637170631401
 31
0.0
  0
LINE
  5
FE18
330
1E
100
AcDbEntity
  8
0
  6
Continuous
 62
     7
370
     0
100
AcDbLine
 10
-235.8722658931111
 20
-231.0450893476889
 30
0.0
 11
-235.8722658931111
 21
-230.9264616322378
 31
0.0
  0
LINE
  5
FE19
330
1E
100
AcDbEntity
  8
0
  6
Continuous
 62
     7
370
     0
100
AcDbLine
 10
-235.8722658931111
 20
-231.0450893476889
 30
0.0
 11
-235.7499981694379
 21
-231.0450893476889
 31
0.0
  0
LINE
  5
FE1A
330
1E
100
AcDbEntity
  8
0
  6
Continuous
 62
     7
370
     0
100
AcDbLine
 10
-235.9945336167843
 20
-231.0450893476889
 30
0.0
 11
-235.8722658931111
 21
-231.0450893476889
 31
0.0
  0
CIRCLE
  5
FE1B
330
1E
100
AcDbEntity
  8
0
  6
Continuous
 62
     7
370
     0
100
AcDbCircle
 10
-235.8722659549875
 20
-238.1316595055852
 30
0.0
 40
0.07874
  0
LINE
  5
FE1C
330
1E
100
AcDbEntity
  8
0
  6
Continuous
 62
     7
370
     0
100
AcDbLine
 10
-235.8722659549875
 20
-238.1316595055852
 30
0.0
 11
-235.8722659549875
 21
-238.2502872210364
 31
0.0
  0
LINE
  5
FE1D
330
1E
100
AcDbEntity
  8
0
  6
Continuous
 62
     7
370
     0
100
AcDbLine
 10
-235.8722659549875
 20
-238.1316595055852
 30
0.0
 11
-235.8722659549875
 21
-238.0130317901341
 31
0.0
  0
LINE
  5
FE1E
330
1E
100
AcDbEntity
  8
0
  6
Continuous
 62
     7
370
     0
100
AcDbLine
 10
-235.8722659549875
 20
-238.1316595055852
 30
0.0
 11
-235.7499982313144
 21
-238.1316595055852
 31
0.0
  0
LINE
  5
FE1F
330
1E
100
AcDbEntity
  8
0
  6
Continuous
 62
     7
370
     0
100
AcDbLine
 10
-235.9945336786607
 20
-238.1316595055852
 30
0.0
 11
-235.8722659549875
 21
-238.1316595055852
 31
0.0
  0
CIRCLE
  5
FE20
330
1E
100
AcDbEntity
  8
0
  6
Continuous
 62
     7
370
     0
100
AcDbCircle
 10
-213.5792047503631
 20
-238.1316595055852
 30
0.0
 40
0.0787400000000001
  0
LINE
  5
FE21
330
1E
100
AcDbEntity
  8
0
  6
Continuous
 62
     7
370
     0
100
AcDbLine
 10
-213.5792047503631
 20
-238.1316595055852
 30
0.0
 11
-213.5792047503631
 21
-238.2502872210364
 31
0.0
  0
LINE
  5
FE22
330
1E
100
AcDbEntity
  8
0
  6
Continuous
 62
     7
370
     0
100
AcDbLine
 10
-213.5792047503631
 20
-238.1316595055852
 30
0.0
 11
-213.5792047503631
 21
-238.0130317901341
 31
0.0
  0
LINE
  5
FE23
330
1E
100
AcDbEntity
  8
0
  6
Continuous
 62
     7
370
     0
100
AcDbLine
 10
-213.5792047503631
 20
-238.1316595055852
 30
0.0
 11
-213.7014724740363
 21
-238.1316595055852
 31
0.0
  0
LINE
  5
FE24
330
1E
100
AcDbEntity
  8
0
  6
Continuous
 62
     7
370
     0
100
AcDbLine
 10
-213.4569370266899
 20
-238.1316595055852
 30
0.0
 11
-213.5792047503631
 21
-238.1316595055852
 31
0.0
  0
LINE
  5
FE25
330
1E
100
AcDbEntity
  8
0
  6
HIDDEN
 62
     7
370
     0
100
AcDbLine
 10
-232.9890572823599
 20
-242.0649436251533
 30
0.0
 11
-233.2209441161804
 21
-242.0649436251533
 31
0.0
  0
LINE
  5
FE26
330
1E
100
AcDbEntity
  8
0
  6
HIDDEN
 62
     7
370
     0
100
AcDbLine
 10
-216.4450225988891
 20
-242.0649436251533
 30
0.0
 11
-216.2131357650685
 21
-242.0649436251533
 31
0.0
  0
ARC
  5
FE43
330
1E
100
AcDbEntity
  8
0
  6
HIDDEN
 62
     7
370
     0
100
AcDbCircle
 10
-216.2131357650686
 20
-239.9399436251533
 30
0.0
 40
2.125
100
AcDbArc
 50
270.0000000000007
 51
0.0
  0
ARC
  5
FE44
330
1E
100
AcDbEntity
  8
0
  6
HIDDEN
 62
     7
370
     0
100
AcDbCircle
 10
-233.2209441161804
 20
-239.9399436251533
 30
0.0
 40
2.125
100
AcDbArc
 50
179.9999999999998
 51
270.0000000000007
  0
LINE
  5
FEF3
330
1E
100
AcDbEntity
  8
0
  6
Continuous
 62
     7
100
AcDbLine
 10
-212.2170399406245
 20
-227.4443717353292
 30
0.0
 11
-212.2170399406245
 21
-227.4443717353292
 31
0.0
  0
LINE
  5
FEFE
330
1E
100
AcDbEntity
  8
0
  6
Continuous
 62
     7
100
AcDbLine
 10
-212.2170399406245
 20
-241.9271484251533
 30
0.0
 11
-212.2170399406245
 21
-241.9271484251533
 31
0.0
  0
LINE
  5
1024A
330
1E
100
AcDbEntity
  8
0
  6
Continuous
 62
     7
100
AcDbLine
 10
-233.2209443744451
 20
-227.3065765353293
 30
0.0
 11
-232.9890572823599
 21
-227.3065765353293
 31
0.0
  0
DIMENSION
  5
1026D
330
1E
100
AcDbEntity
  8
0
  6
Continuous
 62
     7
100
AcDbDimension
  2
*D8
 10
-232.6420622072131
 20
-230.0273040589677
 30
0.0
 11
-235.8849644894761
 21
-227.3517467182452
 31
0.0
 70
   164
 71
     5
 42
1.181099999999929
  3
COPY_OF_STANDARD
100
AcDbRadialDimension
 15
-233.4532659741
 25
-229.1688486678212
 35
0.0
 40
0.0
1001
ACAD
1000
DSTYLE
1002
{
1070
   141
1040
0.1
1070
   288
1070
     1
1002
}
  0
VIEWPORT
  5
814A
330
8143
100
AcDbEntity
 67
     1
  8
0
  6
Continuous
 62
     7
100
AcDbViewport
 10
22.01234688591649
 20
19.73547638809741
 30
0.0
 40
50.4833333333333
 41
29.5259279279279
 68
     1
 69
     1
 12
22.01234688591649
 22
19.73547638809741
 13
0.0
 23
0.0
 14
0.5
 24
0.5
 15
0.5
 25
0.5
 16
0.0
 26
0.0
 36
1.0
 17
0.0
 27
0.0
 37
0.0
 42
50.0
 43
0.0
 44
0.0
 45
29.5259279279279
 50
0.0
 51
0.0
 72
   100
 90
    32800
  1

281
     0
 71
     1
 74
     0
110
0.0
120
0.0
130
0.0
111
1.0
121
0.0
131
0.0
112
0.0
122
1.0
132
0.0
 79
     0
146
0.0
170
     0
  0
VIEWPORT
  5
814C
330
8143
100
AcDbEntity
 67
     1
  8
GRS_GAMBAR
  6
Continuous
 62
     7
100
AcDbViewport
 10
22.01234688591649
 20
16.75195686857789
 30
0.0
 40
33.1
 41
23.29999999999998
 68
     2
 69
     2
 12
-205.0542080922203
 22
-235.5289059517356
 13
0.0
 23
0.0
 14
1.0
 24
1.0
 15
0.0
 25
0.0
 16
0.0
 26
0.0
 36
1.0
 17
0.0
 27
0.0
 37
0.0
 42
50.0
 43
0.0
 44
0.0
 45
23.29999999999998
 50
0.0
 51
0.0
 72
   100
 90
    32800
  1

281
     0
 71
     1
 74
     0
110
0.0
120
0.0
130
0.0
111
1.0
121
0.0
131
0.0
112
0.0
122
1.0
132
0.0
 79
     0
146
0.0
170
     0
  0
ENDSEC
  0
SECTION
  2
OBJECTS
  0
DICTIONARY
  5
C
330
0
100
AcDbDictionary
281
     1
  3
ACAD_2007HEADERVARS_RT
350
10341
  3
ACAD_CIP_PREVIOUS_PRODUCT_INFO
350
1032B
  3
ACAD_COLOR
350
264D
  3
ACAD_GROUP
350
D
  3
ACAD_LAYOUT
350
19
  3
ACAD_MATERIAL
350
264C
  3
ACAD_MLEADERSTYLE
350
10321
  3
ACAD_MLINESTYLE
350
16
  3
ACAD_PLOTSETTINGS
350
18
  3
ACAD_PLOTSTYLENAME
350
E
  3
ACAD_SCALELIST
350
1030F
  3
ACAD_TABLESTYLE
350
264E
  3
ACAD_VISUALSTYLE
350
102F6
  3
AcadDim
350
D970
  3
ACDB_RECOMPOSE_DATA
350
10340
  3
ACDBVARIABLEDICTIONARY
350
185D
  3
ASE_INDEX_DICTIONARY
350
10093
  3
AVE_ACITABLE
350
F9A9
  0
DICTIONARY
  5
2659
330
2
100
AcDbDictionary
280
     1
281
     1
  3
ACAD_LAYERFILTERS
360
F631
  3
ACAD_LAYERSTATES
360
265A
  3
ACLYDICTIONARY
360
F630
  0
DICTIONARY
  5
1032D
330
10
100
AcDbDictionary
280
     1
281
     1
  3
ADSK_XREC_LAYER_RECONCILED
360
1032E
  0
DICTIONARY
  5
1032F
330
490
100
AcDbDictionary
280
     1
281
     1
  3
ADSK_XREC_LAYER_RECONCILED
360
10330
  0
DICTIONARY
  5
10331
330
F641
100
AcDbDictionary
280
     1
281
     1
  3
ADSK_XREC_LAYER_RECONCILED
360
10332
  0
DICTIONARY
  5
10333
330
F999
100
AcDbDictionary
280
     1
281
     1
  3
ADSK_XREC_LAYER_RECONCILED
360
10334
  0
DICTIONARY
  5
10335
330
FA5A
100
AcDbDictionary
280
     1
281
     1
  3
ADSK_XREC_LAYER_RECONCILED
360
10336
  0
DICTIONARY
  5
10337
330
FA5D
100
AcDbDictionary
280
     1
281
     1
  3
ADSK_XREC_LAYER_RECONCILED
360
10338
  0
DICTIONARY
  5
1CF
330
1E
100
AcDbDictionary
280
     1
281
     1
  3
ACAD_LAYOUTSELFREF
360
263D
  3
ACAD_SORTENTS
360
2AA3
  0
DICTIONARY
  5
F634
330
F633
100
AcDbDictionary
280
     1
281
     1
  3
ACAD_SORTENTS
360
F635
  0
DICTIONARY
  5
F716
330
F714
100
AcDbDictionary
280
     1
281
     1
  3
ACAD_SORTENTS
360
F717
  0
DICTIONARY
  5
F9EE
330
F9ED
100
AcDbDictionary
280
     1
281
     1
  0
DICTIONARY
  5
FA52
330
FA51
100
AcDbDictionary
280
     1
281
     1
  3
ACAD_SORTENTS
360
FA53
  0
DICTIONARY
  5
10341
102
{ACAD_REACTORS
330
C
102
}
330
C
100
AcDbDictionary
281
     1
  3
DIMFXL
350
10342
  0
XRECORD
  5
1032B
102
{ACAD_REACTORS
330
C
102
}
330
C
100
AcDbXrecord
280
     1
300
ACD
300
2012
300
85730ACD_2012_0F
  0
DICTIONARY
  5
264D
102
{ACAD_REACTORS
330
C
102
}
330
C
100
AcDbDictionary
281
     1
  3
DIC COLOR GUIDE(R)$DIC 181
350
82CB
  0
DICTIONARY
  5
D
102
{ACAD_REACTORS
330
C
102
}
330
C
100
AcDbDictionary
281
     1
  0
DICTIONARY
  5
19
102
{ACAD_REACTORS
330
C
102
}
330
C
100
AcDbDictionary
281
     1
  3
Layout1
350
8144
  3
Model
350
2650
  0
DICTIONARY
  5
264C
102
{ACAD_REACTORS
330
C
102
}
330
C
100
AcDbDictionary
281
     1
  3
ByBlock
350
102EE
  3
ByLayer
350
102E6
  3
Global
350
FA61
  0
DICTIONARY
  5
10321
102
{ACAD_REACTORS
330
C
102
}
330
C
100
AcDbDictionary
281
     1
  3
Standard
350
10322
  0
DICTIONARY
  5
16
102
{ACAD_REACTORS
330
C
102
}
330
C
100
AcDbDictionary
281
     1
  3
STANDARD
350
17
  0
DICTIONARY
  5
18
102
{ACAD_REACTORS
330
C
102
}
330
C
100
AcDbDictionary
281
     1
  3
AUGUSTA
350
1CB0
  3
SANAGLOS_KOP
350
1CA6
  3
SANAGLOSS
350
1B45
  3
TEM-USA
350
1914
  0
ACDBDICTIONARYWDFLT
  5
E
102
{ACAD_REACTORS
330
C
102
}
330
C
100
AcDbDictionary
281
     1
  3
Normal
350
F
100
AcDbDictionaryWithDefault
340
F
  0
DICTIONARY
  5
1030F
102
{ACAD_REACTORS
330
C
102
}
330
C
100
AcDbDictionary
281
     1
  3
A0
350
10310
  3
A1
350
10311
  3
A2
350
10312
  3
A3
350
10313
  3
A4
350
10314
  3
A5
350
10315
  3
A6
350
10316
  3
A7
350
10317
  3
A8
350
10318
  3
A9
350
10319
  3
B0
350
1031A
  3
B1
350
1031B
  3
B2
350
1031C
  3
B3
350
1031D
  3
B4
350
1031E
  3
B5
350
1031F
  3
B6
350
10320
  0
DICTIONARY
  5
264E
102
{ACAD_REACTORS
330
C
102
}
330
C
100
AcDbDictionary
281
     1
  3
Standard
350
264F
  0
DICTIONARY
  5
102F6
102
{ACAD_REACTORS
330
C
102
}
330
C
100
AcDbDictionary
281
     1
  3
2dWireframe
350
102FC
  3
Basic
350
102FB
  3
Brighten
350
10302
  3
ColorChange
350
10306
  3
Conceptual
350
102FF
  3
Dim
350
10301
  3
EdgeColorOff
350
1030E
  3
Facepattern
350
10305
  3
Flat
350
102F7
  3
FlatWithEdges
350
102F8
  3
Gouraud
350
102F9
  3
GouraudWithEdges
350
102FA
  3
Hidden
350
102FE
  3
JitterOff
350
1030C
  3
Linepattern
350
10304
  3
OverhangOff
350
1030D
  3
Realistic
350
10300
  3
Shaded
350
1030B
  3
Shaded with edges
350
1030A
  3
Shades of Gray
350
10307
  3
Sketchy
350
10308
  3
Thicken
350
10303
  3
Wireframe
350
102FD
  3
X-Ray
350
10309
  0
XRECORD
  5
D970
102
{ACAD_REACTORS
330
C
102
}
330
C
100
AcDbXrecord
280
     1
 90
   990106
  3

 60
     0
 61
     0
 62
     1
 63
     3
 64
     0
 65
     0
 66
     0
 67
     3
 68
     1
 69
     0
 70
     0
 71
     0
 72
     0
 40
0.03
170
     0
  0
XRECORD
  5
10340
102
{ACAD_REACTORS
330
C
102
}
330
C
100
AcDbXrecord
280
     1
 90
        1
330
264F
  0
DICTIONARY
  5
185D
102
{ACAD_REACTORS
330
C
102
}
330
C
100
AcDbDictionary
281
     1
  3
CANNOSCALE
350
1033A
  3
CMLEADERSTYLE
350
10339
  3
CTABLESTYLE
350
2667
  3
DIMASSOC
350
261A
  3
PROJECTNAME
350
31C0
  3
SORTENTS
350
185E
  0
DICTIONARY
  5
10093
102
{ACAD_REACTORS
330
C
102
}
330
C
100
AcDbDictionary
281
     1
  3
ASEBlockHierarchyIndexRecord
350
10094
1001
DCO15
1040
1751893078.371
  0
DICTIONARY
  5
F9A9
102
{ACAD_REACTORS
330
C
102
}
330
C
100
AcDbDictionary
281
     1
  0
DICTIONARY
  5
F631
102
{ACAD_REACTORS
330
2659
102
}
330
2659
100
AcDbDictionary
281
     1
  0
DICTIONARY
  5
265A
102
{ACAD_REACTORS
330
2659
102
}
330
2659
100
AcDbDictionary
281
     1
  0
DICTIONARY
  5
F630
102
{ACAD_REACTORS
330
2659
102
}
330
2659
100
AcDbDictionary
281
     1
1001
ACAD
1000
<All
  0
XRECORD
  5
1032E
102
{ACAD_REACTORS
330
1032D
102
}
330
1032D
100
AcDbXrecord
280
     1
290
     1
  0
XRECORD
  5
10330
102
{ACAD_REACTORS
330
1032F
102
}
330
1032F
100
AcDbXrecord
280
     1
290
     1
  0
XRECORD
  5
10332
102
{ACAD_REACTORS
330
10331
102
}
330
10331
100
AcDbXrecord
280
     1
290
     1
  0
XRECORD
  5
10334
102
{ACAD_REACTORS
330
10333
102
}
330
10333
100
AcDbXrecord
280
     1
290
     1
  0
XRECORD
  5
10336
102
{ACAD_REACTORS
330
10335
102
}
330
10335
100
AcDbXrecord
280
     1
290
     1
  0
XRECORD
  5
10338
102
{ACAD_REACTORS
330
10337
102
}
330
10337
100
AcDbXrecord
280
     1
290
     1
  0
XRECORD
  5
263D
102
{ACAD_REACTORS
330
1CF
102
}
330
1CF
100
AcDbXrecord
280
     1
340
1E
  0
SORTENTSTABLE
  5
2AA3
102
{ACAD_REACTORS
330
1CF
102
}
330
1CF
100
AcDbSortentsTable
330
1E
331
F750
  5
F756
331
F754
  5
F75A
331
FE44
  5
F6E9
331
F758
  5
F75E
331
FE01
  5
FE16
331
FD72
  5
F6E5
331
F75C
  5
F762
331
F6DA
  5
F6DA
331
FA6B
  5
FABD
331
EDD8
  5
EDD8
331
F933
  5
F9A1
331
FD8E
  5
FD8F
331
FAA3
  5
FAC9
331
F762
  5
F768
331
FD90
  5
FD91
331
FE17
  5
FE18
331
F766
  5
F76C
331
FE1B
  5
FE1C
331
F76A
  5
F773
331
FE1F
  5
FE20
331
F747
  5
F74D
331
F6EC
  5
F6F6
331
F74B
  5
F751
331
F74F
  5
F755
331
FABD
  5
FACB
331
F6F4
  5
F6FA
331
FE21
  5
FE22
331
F774
  5
F940
331
F9A2
  5
FAA4
331
FE25
  5
FE26
331
F751
  5
F757
331
F755
  5
F75B
331
ED41
  5
ED41
331
F759
  5
F75F
331
F75D
  5
F763
331
F6DB
  5
F6DB
331
F6DF
  5
F6DF
331
FD8F
  5
FD90
331
F763
  5
F769
331
FD91
  5
FD92
331
FE18
  5
FE19
331
F767
  5
F76D
331
FE1C
  5
FE1D
331
F76B
  5
F774
331
F99D
  5
F9A3
331
F748
  5
F74E
331
F6E9
  5
F6EF
331
F8F3
  5
F99D
331
EE33
  5
EE33
331
FDC5
  5
FDD0
331
F74C
  5
F752
331
F6F1
  5
F6F7
331
F771
  5
F8FD
331
EA24
  5
EA24
331
FABE
  5
FACC
331
F6F5
  5
F6FB
331
FE22
  5
FE23
331
FE26
  5
FE43
331
F9A3
  5
FAA5
331
F752
  5
F758
331
F756
  5
F75C
331
F75A
  5
F760
331
F713
  5
F74C
331
F75E
  5
F764
331
F905
  5
F9A0
331
F6DC
  5
F6DC
331
F760
  5
F766
331
FAA5
  5
F6F4
331
F764
  5
F76A
331
FD92
  5
FDC4
331
FE19
  5
FE1A
331
F768
  5
F771
331
F76C
  5
F8F3
331
FE1D
  5
FE1E
331
F99E
  5
F9A4
331
F749
  5
F74F
331
F74D
  5
F753
331
F6F2
  5
F6F8
331
F64B
  5
F64B
331
F9A0
  5
FA6B
331
FE23
  5
FE24
331
EA25
  5
EA25
331
F6F6
  5
F6FC
331
F8FC
  5
F99E
331
F772
  5
F905
331
F9A4
  5
FAA6
331
FDD0
  5
FE00
331
F9A8
  5
FABC
331
FE43
  5
FE44
331
F753
  5
F759
331
F757
  5
F75D
331
FE00
  5
FE01
331
FD71
  5
F6E3
331
F75B
  5
F761
331
F75F
  5
F765
331
F6D9
  5
F6D9
331
F761
  5
F767
331
F6E5
  5
F6EE
331
FE16
  5
FE17
331
F765
  5
F76B
331
FE1A
  5
FE1B
331
F769
  5
F772
331
EDFD
  5
EDFD
331
FE1E
  5
FE1F
331
F76D
  5
F8FC
331
F6EB
  5
F6F5
331
F74A
  5
F750
331
F99F
  5
F9A8
331
F940
  5
F9A2
331
F74E
  5
F754
331
FABC
  5
FACA
331
F6F3
  5
F6F9
331
FE20
  5
FE21
331
F773
  5
F933
331
F9A1
  5
FAA3
331
F8FD
  5
F99F
331
F6F7
  5
F6FD
331
FE24
  5
FE25
  0
SORTENTSTABLE
  5
F635
102
{ACAD_REACTORS
330
F634
102
}
330
F634
100
AcDbSortentsTable
330
F633
  0
SORTENTSTABLE
  5
F717
102
{ACAD_REACTORS
330
F716
102
}
330
F716
100
AcDbSortentsTable
330
F714
  0
SORTENTSTABLE
  5
FA53
102
{ACAD_REACTORS
330
FA52
102
}
330
FA52
100
AcDbSortentsTable
330
FA51
  0
XRECORD
  5
10342
102
{ACAD_REACTORS
330
10341
102
}
330
10341
100
AcDbXrecord
280
     1
 40
3.0
  0
DBCOLOR
  5
82CB
102
{ACAD_REACTORS
330
264D
102
}
330
264D
100
AcDbColor
 62
   142
420
    36301
430
DIC COLOR GUIDE(R)$DIC 181
1001
ACAD
1000
DBColXD
1070
   142
1071
-1040151091
1000
DIC COLOR GUIDE(R)$DIC 181
  0
LAYOUT
  5
8144
102
{ACAD_XDICTIONARY
360
8151
102
}
102
{ACAD_REACTORS
330
19
102
}
330
19
100
AcDbPlotSettings
  1

  2
\\totosrv3\RD-03-HPDJ500
  4
User616
  6

 40
0.0
 41
0.0
 42
0.0
 43
0.0
 44
863.6000366210938
 45
1117.599975585937
 46
0.0
 47
0.0
 48
0.0
 49
0.0
140
0.0
141
0.0
142
1.0
143
1.0
 70
   688
 72
     0
 73
     1
 74
     5
  7

 75
    16
147
1.0
 76
     0
 77
     2
 78
   300
148
0.0
149
0.0
100
AcDbLayout
  1
Layout1
 70
     1
 71
     1
 10
0.0
 20
0.0
 11
43.99999903881643
 21
34.00000144177535
 12
0.0
 22
0.0
 32
0.0
 14
5.462346885916495
 24
5.101956868577904
 34
0.0
 15
38.56234688591649
 25
28.40195686857789
 35
0.0
146
0.0
 13
0.0
 23
0.0
 33
0.0
 16
1.0
 26
0.0
 36
0.0
 17
0.0
 27
1.0
 37
0.0
 76
     0
330
8143
331
814A
1001
ACAD_PSEXT
1000
\\totosrv3\RD-03-HPDJ500
1000
HP DesignJet 500 42+HPGL2 Card
1000
R & D/Quality Engineering
1000
IP 172.16.4.69, HP DesignJet 500, S/N
1070
     0
  0
LAYOUT
  5
2650
102
{ACAD_REACTORS
330
19
102
}
330
19
100
AcDbPlotSettings
  1

  2
HP Designjet 500 42+HPGL2 Card
  4
User1639
  6

 40
0.0
 41
0.0
 42
0.0
 43
0.0
 44
863.6000366210938
 45
558.7999877929687
 46
114.3000183105469
 47
38.09999389648435
 48
-237.2170399406245
 49
-245.3332866557505
140
-212.2170399406245
141
-226.3332866557505
142
1.0
143
1.0
 70
  3604
 72
     0
 73
     0
 74
     4
  7

 75
    16
147
1.0
 76
     0
 77
     4
 78
   300
148
6025.312814491861
149
6231.465481056062
100
AcDbLayout
  1
Model
 70
     1
 71
     0
 10
0.0
 20
0.0
 11
12.0
 21
9.0
 12
0.0
 22
0.0
 32
0.0
 14
0.0
 24
0.0
 34
0.0
 15
0.0
 25
0.0
 35
0.0
146
0.0
 13
0.0
 23
0.0
 33
0.0
 16
1.0
 26
0.0
 36
0.0
 17
0.0
 27
1.0
 37
0.0
 76
     0
330
1E
331
102E4
1001
ACAD_PSEXT
1000
HP Designjet 500 42+HPGL2 Card
1000
HP Designjet 500 42+HPGL2 Card
1000
IP_172.16.4.69
1000

1070
     0
  0
MATERIAL
  5
102EE
102
{ACAD_XDICTIONARY
360
102EF
102
}
102
{ACAD_REACTORS
330
264C
102
}
330
264C
100
AcDbMaterial
  1
ByBlock
 72
     0
 43
0.0008202099737533
 43
0.0
 43
0.0
 43
0.0
 43
0.0
 43
0.0008202099737533
 43
0.0
 43
0.0
 43
0.0
 43
0.0
 43
1.0
 43
0.0
 43
0.0
 43
0.0
 43
0.0
 43
1.0
 77
     0
 47
0.0008202099737533
 47
0.0
 47
0.0
 47
0.0
 47
0.0
 47
0.0008202099737533
 47
0.0
 47
0.0
 47
0.0
 47
0.0
 47
1.0
 47
0.0
 47
0.0
 47
0.0
 47
0.0
 47
1.0
171
     0
 49
0.0008202099737533
 49
0.0
 49
0.0
 49
0.0
 49
0.0
 49
0.0008202099737533
 49
0.0
 49
0.0
 49
0.0
 49
0.0
 49
1.0
 49
0.0
 49
0.0
 49
0.0
 49
0.0
 49
1.0
175
     0
142
0.0008202099737533
142
0.0
142
0.0
142
0.0
142
0.0
142
0.0008202099737533
142
0.0
142
0.0
142
0.0
142
0.0
142
1.0
142
0.0
142
0.0
142
0.0
142
0.0
142
1.0
179
     0
144
0.0008202099737533
144
0.0
144
0.0
144
0.0
144
0.0
144
0.0008202099737533
144
0.0
144
0.0
144
0.0
144
0.0
144
1.0
144
0.0
144
0.0
144
0.0
144
0.0
144
1.0
147
0.0008202099737533
147
0.0
147
0.0
147
0.0
147
0.0
147
0.0008202099737533
147
0.0
147
0.0
147
0.0
147
0.0
147
1.0
147
0.0
147
0.0
147
0.0
147
0.0
147
1.0
  0
MATERIAL
  5
102E6
102
{ACAD_XDICTIONARY
360
102E7
102
}
102
{ACAD_REACTORS
330
264C
102
}
330
264C
100
AcDbMaterial
  1
ByLayer
 72
     0
 43
0.0008202099737533
 43
0.0
 43
0.0
 43
0.0
 43
0.0
 43
0.0008202099737533
 43
0.0
 43
0.0
 43
0.0
 43
0.0
 43
1.0
 43
0.0
 43
0.0
 43
0.0
 43
0.0
 43
1.0
 77
     0
 47
0.0008202099737533
 47
0.0
 47
0.0
 47
0.0
 47
0.0
 47
0.0008202099737533
 47
0.0
 47
0.0
 47
0.0
 47
0.0
 47
1.0
 47
0.0
 47
0.0
 47
0.0
 47
0.0
 47
1.0
171
     0
 49
0.0008202099737533
 49
0.0
 49
0.0
 49
0.0
 49
0.0
 49
0.0008202099737533
 49
0.0
 49
0.0
 49
0.0
 49
0.0
 49
1.0
 49
0.0
 49
0.0
 49
0.0
 49
0.0
 49
1.0
175
     0
142
0.0008202099737533
142
0.0
142
0.0
142
0.0
142
0.0
142
0.0008202099737533
142
0.0
142
0.0
142
0.0
142
0.0
142
1.0
142
0.0
142
0.0
142
0.0
142
0.0
142
1.0
179
     0
144
0.0008202099737533
144
0.0
144
0.0
144
0.0
144
0.0
144
0.0008202099737533
144
0.0
144
0.0
144
0.0
144
0.0
144
1.0
144
0.0
144
0.0
144
0.0
144
0.0
144
1.0
147
0.0008202099737533
147
0.0
147
0.0
147
0.0
147
0.0
147
0.0008202099737533
147
0.0
147
0.0
147
0.0
147
0.0
147
1.0
147
0.0
147
0.0
147
0.0
147
0.0
147
1.0
  0
MATERIAL
  5
FA61
102
{ACAD_XDICTIONARY
360
10344
102
}
102
{ACAD_REACTORS
330
264C
102
}
330
264C
100
AcDbMaterial
  1
Global
 73
     1
 78
     1
172
     1
176
     1
270
     1
274
     1
  0
MLEADERSTYLE
  5
10322
102
{ACAD_XDICTIONARY
360
1033E
102
}
102
{ACAD_REACTORS
330
10321
102
}
330
10321
100
AcDbMLeaderStyle
170
     2
171
     1
172
     0
 90
        2
 40
0.0
 41
0.0
173
     1
 91
-1056964608
340
13
 92
       -2
290
     1
 42
0.09
291
     1
 43
0.36
  3
Standard
 44
0.18
300

342
11
174
     1
178
     6
175
     1
176
     0
 93
-1056964608
 45
0.18
292
     0
297
     0
 46
0.18
 94
-1056964608
 47
1.0
 49
1.0
140
1.0
293
     1
141
0.0
294
     1
177
     0
142
1.0
295
     0
296
     0
143
0.125
1001
ACAD_MLEADERVER
1070
     2
  0
MLINESTYLE
  5
17
102
{ACAD_REACTORS
330
16
102
}
330
16
100
AcDbMlineStyle
  2
STANDARD
 70
     0
  3

 62
   256
 51
90.0
 52
90.0
 71
     2
 49
0.5
 62
   256
  6
BYLAYER
 49
-0.5
 62
   256
  6
BYLAYER
  0
PLOTSETTINGS
  5
1CB0
102
{ACAD_REACTORS
330
18
102
}
330
18
100
AcDbPlotSettings
  1
AUGUSTA
  2
HP DesignJet 750C_ (D_A1) by HP.pc3
  4
User271
  6

 40
4.995333194732666
 41
16.93330574035644
 42
4.99530029296875
 43
16.933349609375
 44
593.9366455078125
 45
840.8246459960937
 46
13.77
 47
0.0
 48
-319.3112628452372
 49
-100.2489204824246
140
475.3486629620174
141
456.1567913142567
142
1.0
143
1.0
 70
  1680
 72
     1
 73
     1
 74
     4
  7

 75
    16
147
1.0
 76
     0
 77
     2
 78
   300
148
319.3112628452372
149
100.2489204824246
  0
PLOTSETTINGS
  5
1CA6
102
{ACAD_REACTORS
330
18
102
}
330
18
100
AcDbPlotSettings
  1
SANAGLOS KOP
  2
HP DesignJet 750C_ (D_A1) by HP.pc3
  4
User271
  6

 40
4.995333194732666
 41
16.93330574035644
 42
4.99530029296875
 43
16.933349609375
 44
593.9366455078125
 45
840.8246459960937
 46
13.77
 47
0.0
 48
711.1707148896048
 49
-92.98960787981377
140
1506.883174174088
141
463.4161049991221
142
1.0
143
1.0
 70
  1680
 72
     1
 73
     1
 74
     4
  7

 75
    16
147
1.0
 76
     0
 77
     2
 78
   300
148
-711.1707148896048
149
92.98960787981377
  0
PLOTSETTINGS
  5
1B45
102
{ACAD_REACTORS
330
18
102
}
330
18
100
AcDbPlotSettings
  1
SANAGLOSS
  2
HP DesignJet 750C_ (D_A1) by HP.pc3
  4
User1644
  6

 40
3.174999952316282
 41
3.174999952316282
 42
3.17498779296875
 43
3.17498779296875
 44
594.0
 45
420.0
 46
46.73
 47
25.15
 48
507.9937769374105
 49
-33.47017728181299
140
1002.175992193447
141
341.8761457011038
142
1.0
143
1.0
 70
  1680
 72
     1
 73
     0
 74
     4
  7

 75
    16
147
1.0
 76
     0
 77
     2
 78
   300
148
-507.9937769374105
149
33.47017728181299
  0
PLOTSETTINGS
  5
1914
102
{ACAD_REACTORS
330
18
102
}
330
18
100
AcDbPlotSettings
  1
TEM-USA
  2
Adobe PDFa.pc3
  4
User122
  6

 40
3.174999952316284
 41
3.174999952316284
 42
3.175048828125
 43
3.17498779296875
 44
1117.599975585937
 45
863.6000366210938
 46
238.0125031003076
 47
152.7772876911688
 48
-228.7633077298619
 49
-22.75333800762997
140
324.0515129779132
141
376.6328008032835
142
1.0
143
1.0
 70
  3604
 72
     0
 73
     0
 74
     1
  7

 75
    16
147
1.0
 76
     0
 77
     4
 78
   300
148
6025.432159065633
149
6300.558952593893
1001
ACAD_PSEXT
1000
Adobe PDFa.pc3
1000
Adobe PDF Converter
1000
My Documents\*.pdf
1000

1070
     0
  0
ACDBPLACEHOLDER
  5
F
102
{ACAD_REACTORS
330
E
102
}
330
E
  0
SCALE
  5
10310
102
{ACAD_REACTORS
330
1030F
102
}
330
1030F
100
AcDbScale
 70
     0
300
1:1
140
1.0
141
1.0
290
     1
  0
SCALE
  5
10311
102
{ACAD_REACTORS
330
1030F
102
}
330
1030F
100
AcDbScale
 70
     0
300
1/128" = 1'-0"
140
0.0078125
141
12.0
290
     0
  0
SCALE
  5
10312
102
{ACAD_REACTORS
330
1030F
102
}
330
1030F
100
AcDbScale
 70
     0
300
1/64" = 1'-0"
140
0.015625
141
12.0
290
     0
  0
SCALE
  5
10313
102
{ACAD_REACTORS
330
1030F
102
}
330
1030F
100
AcDbScale
 70
     0
300
1/32" = 1'-0"
140
0.03125
141
12.0
290
     0
  0
SCALE
  5
10314
102
{ACAD_REACTORS
330
1030F
102
}
330
1030F
100
AcDbScale
 70
     0
300
1/16" = 1'-0"
140
0.0625
141
12.0
290
     0
  0
SCALE
  5
10315
102
{ACAD_REACTORS
330
1030F
102
}
330
1030F
100
AcDbScale
 70
     0
300
3/32" = 1'-0"
140
0.09375
141
12.0
290
     0
  0
SCALE
  5
10316
102
{ACAD_REACTORS
330
1030F
102
}
330
1030F
100
AcDbScale
 70
     0
300
1/8" = 1'-0"
140
0.125
141
12.0
290
     0
  0
SCALE
  5
10317
102
{ACAD_REACTORS
330
1030F
102
}
330
1030F
100
AcDbScale
 70
     0
300
3/16" = 1'-0"
140
0.1875
141
12.0
290
     0
  0
SCALE
  5
10318
102
{ACAD_REACTORS
330
1030F
102
}
330
1030F
100
AcDbScale
 70
     0
300
1/4" = 1'-0"
140
0.25
141
12.0
290
     0
  0
SCALE
  5
10319
102
{ACAD_REACTORS
330
1030F
102
}
330
1030F
100
AcDbScale
 70
     0
300
3/8" = 1'-0"
140
0.375
141
12.0
290
     0
  0
SCALE
  5
1031A
102
{ACAD_REACTORS
330
1030F
102
}
330
1030F
100
AcDbScale
 70
     0
300
1/2" = 1'-0"
140
0.5
141
12.0
290
     0
  0
SCALE
  5
1031B
102
{ACAD_REACTORS
330
1030F
102
}
330
1030F
100
AcDbScale
 70
     0
300
3/4" = 1'-0"
140
0.75
141
12.0
290
     0
  0
SCALE
  5
1031C
102
{ACAD_REACTORS
330
1030F
102
}
330
1030F
100
AcDbScale
 70
     0
300
1" = 1'-0"
140
1.0
141
12.0
290
     0
  0
SCALE
  5
1031D
102
{ACAD_REACTORS
330
1030F
102
}
330
1030F
100
AcDbScale
 70
     0
300
1-1/2" = 1'-0"
140
1.5
141
12.0
290
     0
  0
SCALE
  5
1031E
102
{ACAD_REACTORS
330
1030F
102
}
330
1030F
100
AcDbScale
 70
     0
300
3" = 1'-0"
140
3.0
141
12.0
290
     0
  0
SCALE
  5
1031F
102
{ACAD_REACTORS
330
1030F
102
}
330
1030F
100
AcDbScale
 70
     0
300
6" = 1'-0"
140
6.0
141
12.0
290
     0
  0
SCALE
  5
10320
102
{ACAD_REACTORS
330
1030F
102
}
330
1030F
100
AcDbScale
 70
     0
300
1'-0" = 1'-0"
140
12.0
141
12.0
290
     0
  0
TABLESTYLE
  5
264F
102
{ACAD_XDICTIONARY
360
1033C
102
}
102
{ACAD_REACTORS
330
264E
102
}
330
264E
100
AcDbTableStyle
  3
Standard
 70
     0
 71
     0
 40
0.06
 41
0.06
280
     0
281
     0
  7
STANDARD
140
0.18
170
     2
 62
     0
 63
     7
283
     0
274
    -2
284
     1
 64
     0
275
    -2
285
     1
 65
     0
276
    -2
286
     1
 66
     0
277
    -2
287
     1
 67
     0
278
    -2
288
     1
 68
     0
279
    -2
289
     1
 69
     0
  7
STANDARD
140
0.25
170
     5
 62
     0
 63
     7
283
     0
274
    -2
284
     1
 64
     0
275
    -2
285
     1
 65
     0
276
    -2
286
     1
 66
     0
277
    -2
287
     1
 67
     0
278
    -2
288
     1
 68
     0
279
    -2
289
     1
 69
     0
  7
STANDARD
140
0.18
170
     5
 62
     0
 63
     7
283
     0
274
    -2
284
     1
 64
     0
275
    -2
285
     1
 65
     0
276
    -2
286
     1
 66
     0
277
    -2
287
     1
 67
     0
278
    -2
288
     1
 68
     0
279
    -2
289
     1
 69
     0
  0
VISUALSTYLE
  5
102FC
102
{ACAD_XDICTIONARY
360
10352
102
}
102
{ACAD_REACTORS
330
102F6
102
}
330
102F6
100
AcDbVisualStyle
  2
2dWireframe
 70
     4
 71
     0
 72
     2
 73
     0
 90
        0
 40
-0.6
 41
-30.0
 62
     5
 63
     7
421
 16777215
 74
     1
 91
        4
 64
     7
 65
   257
 75
     1
175
     1
 42
1.0
 92
        0
 66
   257
 43
1.0
 76
     1
 77
     6
 78
     2
 67
     7
 79
     5
170
     0
171
     0
290
     0
174
     0
 93
        1
 44
0.0
173
     0
291
     0
 45
0.0
1001
ACAD
1000
AcDbSavedByObjectVersion
1070
     0
  0
VISUALSTYLE
  5
102FB
102
{ACAD_XDICTIONARY
360
10350
102
}
102
{ACAD_REACTORS
330
102F6
102
}
330
102F6
100
AcDbVisualStyle
  2
Basic
 70
     7
 71
     1
 72
     0
 73
     1
 90
        0
 40
-0.6
 41
-30.0
 62
     5
 63
     7
421
 16777215
 74
     0
 91
        4
 64
     7
 65
   257
 75
     1
175
     1
 42
1.0
 92
        8
 66
     7
 43
1.0
 76
     1
 77
     6
 78
     2
 67
     7
 79
     5
170
     0
171
     0
290
     0
174
     0
 93
        1
 44
0.0
173
     0
291
     1
 45
0.0
1001
ACAD
1000
AcDbSavedByObjectVersion
1070
     0
  0
VISUALSTYLE
  5
10302
102
{ACAD_XDICTIONARY
360
1035E
102
}
102
{ACAD_REACTORS
330
102F6
102
}
330
102F6
100
AcDbVisualStyle
  2
Brighten
 70
    12
 71
     2
 72
     2
 73
     0
 90
        0
 40
-0.6
 41
-30.0
 62
     5
 63
     7
421
 16777215
 74
     1
 91
        4
 64
     7
 65
   257
 75
     1
175
     1
 42
1.0
 92
        8
 66
     7
 43
1.0
 76
     1
 77
     6
 78
     2
 67
     7
 79
     5
170
     0
171
     0
290
     0
174
     0
 93
        1
 44
50.0
173
     0
291
     1
 45
0.0
1001
ACAD
1000
AcDbSavedByObjectVersion
1070
     0
  0
VISUALSTYLE
  5
10306
102
{ACAD_XDICTIONARY
360
10366
102
}
102
{ACAD_REACTORS
330
102F6
102
}
330
102F6
100
AcDbVisualStyle
  2
ColorChange
 70
    16
 71
     2
 72
     2
 73
     3
 90
        0
 40
-0.6
 41
-30.0
 62
     5
 63
     8
421
  8421504
 74
     1
 91
        4
 64
     7
 65
   257
 75
     1
175
     1
 42
1.0
 92
        8
 66
     8
424
  8421504
 43
1.0
 76
     1
 77
     6
 78
     2
 67
     7
 79
     5
170
     0
171
     0
290
     0
174
     0
 93
        1
 44
0.0
173
     0
291
     1
 45
0.0
1001
ACAD
1000
AcDbSavedByObjectVersion
1070
     0
  0
VISUALSTYLE
  5
102FF
102
{ACAD_XDICTIONARY
360
10358
102
}
102
{ACAD_REACTORS
330
102F6
102
}
330
102F6
100
AcDbVisualStyle
  2
Conceptual
 70
     9
 71
     3
 72
     2
 73
     0
 90
        0
 40
-0.6
 41
-30.0
 62
     5
 63
     7
421
 16777215
 74
     2
 91
        2
 64
     7
 65
   257
 75
     1
175
     1
 42
179.0
 92
        8
 66
     7
 43
1.0
 76
     1
 77
     6
 78
     2
 67
     7
 79
     3
170
     0
171
     0
290
     0
174
     0
 93
        1
 44
0.0
173
     0
291
     0
 45
0.0
1001
ACAD
1000
AcDbSavedByObjectVersion
1070
     0
  0
VISUALSTYLE
  5
10301
102
{ACAD_XDICTIONARY
360
1035C
102
}
102
{ACAD_REACTORS
330
102F6
102
}
330
102F6
100
AcDbVisualStyle
  2
Dim
 70
    11
 71
     2
 72
     2
 73
     0
 90
        0
 40
-0.6
 41
-30.0
 62
     5
 63
     7
421
 16777215
 74
     1
 91
        4
 64
     7
 65
   257
 75
     1
175
     1
 42
1.0
 92
        8
 66
     7
 43
1.0
 76
     1
 77
     6
 78
     2
 67
     7
 79
     5
170
     0
171
     0
290
     0
174
     0
 93
        1
 44
-50.0
173
     0
291
     1
 45
0.0
1001
ACAD
1000
AcDbSavedByObjectVersion
1070
     0
  0
VISUALSTYLE
  5
1030E
102
{ACAD_XDICTIONARY
360
10376
102
}
102
{ACAD_REACTORS
330
102F6
102
}
330
102F6
100
AcDbVisualStyle
  2
EdgeColorOff
 70
    22
 71
     2
 72
     2
 73
     0
 90
        0
 40
-0.6
 41
-30.0
 62
     5
 63
     7
421
 16777215
 74
     1
 91
        4
 64
     7
 65
   257
 75
     1
175
     1
 42
1.0
 92
        8
 66
     7
 43
1.0
 76
     1
 77
     6
 78
     2
 67
     7
 79
     5
170
     0
171
     0
290
     0
174
     0
 93
        1
 44
0.0
173
     0
291
     1
 45
0.0
1001
ACAD
1000
AcDbSavedByObjectVersion
1070
     0
  0
VISUALSTYLE
  5
10305
102
{ACAD_XDICTIONARY
360
10364
102
}
102
{ACAD_REACTORS
330
102F6
102
}
330
102F6
100
AcDbVisualStyle
  2
Facepattern
 70
    15
 71
     2
 72
     2
 73
     0
 90
        0
 40
-0.6
 41
-30.0
 62
     5
 63
     7
421
 16777215
 74
     1
 91
        4
 64
     7
 65
   257
 75
     1
175
     1
 42
1.0
 92
        8
 66
     7
 43
1.0
 76
     1
 77
     6
 78
     2
 67
     7
 79
     5
170
     0
171
     0
290
     0
174
     0
 93
        1
 44
0.0
173
     0
291
     1
 45
0.0
1001
ACAD
1000
AcDbSavedByObjectVersion
1070
     0
  0
VISUALSTYLE
  5
102F7
102
{ACAD_XDICTIONARY
360
10348
102
}
102
{ACAD_REACTORS
330
102F6
102
}
330
102F6
100
AcDbVisualStyle
  2
Flat
 70
     0
 71
     2
 72
     1
 73
     1
 90
        2
 40
-0.6
 41
30.0
 62
     5
 63
     7
421
 16777215
 74
     0
 91
        0
 64
     7
 65
   257
 75
     1
175
     1
 42
1.0
 92
        8
 66
     7
 43
1.0
 76
     1
 77
     6
 78
     2
 67
     7
 79
     5
170
     0
171
     0
290
     0
174
     0
 93
       13
 44
0.0
173
     0
291
     1
 45
0.0
1001
ACAD
1000
AcDbSavedByObjectVersion
1070
     0
  0
VISUALSTYLE
  5
102F8
102
{ACAD_XDICTIONARY
360
1034A
102
}
102
{ACAD_REACTORS
330
102F6
102
}
330
102F6
100
AcDbVisualStyle
  2
FlatWithEdges
 70
     1
 71
     2
 72
     1
 73
     1
 90
        2
 40
-0.6
 41
30.0
 62
     5
 63
     7
421
 16777215
 74
     1
 91
        0
 64
     7
 65
   257
 75
     1
175
     1
 42
1.0
 92
        0
 66
   257
 43
1.0
 76
     1
 77
     6
 78
     2
 67
     7
 79
     5
170
     0
171
     0
290
     0
174
     0
 93
       13
 44
0.0
173
     0
291
     1
 45
0.0
1001
ACAD
1000
AcDbSavedByObjectVersion
1070
     0
  0
VISUALSTYLE
  5
102F9
102
{ACAD_XDICTIONARY
360
1034C
102
}
102
{ACAD_REACTORS
330
102F6
102
}
330
102F6
100
AcDbVisualStyle
  2
Gouraud
 70
     2
 71
     2
 72
     2
 73
     1
 90
        2
 40
-0.6
 41
30.0
 62
     5
 63
     7
421
 16777215
 74
     0
 91
        0
 64
     7
 65
   257
 75
     1
175
     1
 42
1.0
 92
        0
 66
     7
 43
1.0
 76
     1
 77
     6
 78
     2
 67
     7
 79
     5
170
     0
171
     0
290
     0
174
     0
 93
       13
 44
0.0
173
     0
291
     1
 45
0.0
1001
ACAD
1000
AcDbSavedByObjectVersion
1070
     0
  0
VISUALSTYLE
  5
102FA
102
{ACAD_XDICTIONARY
360
1034E
102
}
102
{ACAD_REACTORS
330
102F6
102
}
330
102F6
100
AcDbVisualStyle
  2
GouraudWithEdges
 70
     3
 71
     2
 72
     2
 73
     1
 90
        2
 40
-0.6
 41
30.0
 62
     5
 63
     7
421
 16777215
 74
     1
 91
        0
 64
     7
 65
   257
 75
     1
175
     1
 42
1.0
 92
        0
 66
   257
 43
1.0
 76
     1
 77
     6
 78
     2
 67
     7
 79
     5
170
     0
171
     0
290
     0
174
     0
 93
       13
 44
0.0
173
     0
291
     1
 45
0.0
1001
ACAD
1000
AcDbSavedByObjectVersion
1070
     0
  0
VISUALSTYLE
  5
102FE
102
{ACAD_XDICTIONARY
360
10356
102
}
102
{ACAD_REACTORS
330
102F6
102
}
330
102F6
100
AcDbVisualStyle
  2
Hidden
 70
     6
 71
     1
 72
     2
 73
     2
 90
        0
 40
-0.6
 41
-30.0
 62
     5
 63
     7
421
 16777215
 74
     2
 91
        2
 64
     7
 65
   257
 75
     2
175
     1
 42
40.0
 92
        0
 66
   257
 43
1.0
 76
     1
 77
     6
 78
     2
 67
     7
 79
     3
170
     0
171
     0
290
     0
174
     0
 93
        1
 44
0.0
173
     0
291
     0
 45
0.0
1001
ACAD
1000
AcDbSavedByObjectVersion
1070
     0
  0
VISUALSTYLE
  5
1030C
102
{ACAD_XDICTIONARY
360
10372
102
}
102
{ACAD_REACTORS
330
102F6
102
}
330
102F6
100
AcDbVisualStyle
  2
JitterOff
 70
    20
 71
     2
 72
     2
 73
     0
 90
        0
 40
-0.6
 41
-30.0
 62
     5
 63
     7
421
 16777215
 74
     1
 91
        4
 64
     7
 65
   257
 75
     1
175
     1
 42
1.0
 92
       10
 66
     7
 43
1.0
 76
     1
 77
     6
 78
     2
 67
     7
 79
     5
170
     0
171
     0
290
     0
174
     0
 93
        1
 44
0.0
173
     0
291
     1
 45
0.0
1001
ACAD
1000
AcDbSavedByObjectVersion
1070
     0
  0
VISUALSTYLE
  5
10304
102
{ACAD_XDICTIONARY
360
10362
102
}
102
{ACAD_REACTORS
330
102F6
102
}
330
102F6
100
AcDbVisualStyle
  2
Linepattern
 70
    14
 71
     2
 72
     2
 73
     0
 90
        0
 40
-0.6
 41
-30.0
 62
     5
 63
     7
421
 16777215
 74
     1
 91
        4
 64
     7
 65
   257
 75
     7
175
     7
 42
1.0
 92
        8
 66
     7
 43
1.0
 76
     1
 77
     6
 78
     2
 67
     7
 79
     5
170
     0
171
     0
290
     0
174
     0
 93
        1
 44
0.0
173
     0
291
     1
 45
0.0
1001
ACAD
1000
AcDbSavedByObjectVersion
1070
     0
  0
VISUALSTYLE
  5
1030D
102
{ACAD_XDICTIONARY
360
10374
102
}
102
{ACAD_REACTORS
330
102F6
102
}
330
102F6
100
AcDbVisualStyle
  2
OverhangOff
 70
    21
 71
     2
 72
     2
 73
     0
 90
        0
 40
-0.6
 41
-30.0
 62
     5
 63
     7
421
 16777215
 74
     1
 91
        4
 64
     7
 65
   257
 75
     1
175
     1
 42
1.0
 92
        9
 66
     7
 43
1.0
 76
     1
 77
     6
 78
     2
 67
     7
 79
     5
170
     0
171
     0
290
     0
174
     0
 93
        1
 44
0.0
173
     0
291
     1
 45
0.0
1001
ACAD
1000
AcDbSavedByObjectVersion
1070
     0
  0
VISUALSTYLE
  5
10300
102
{ACAD_XDICTIONARY
360
1035A
102
}
102
{ACAD_REACTORS
330
102F6
102
}
330
102F6
100
AcDbVisualStyle
  2
Realistic
 70
     8
 71
     2
 72
     3
 73
     0
 90
        2
 40
-0.6
 41
30.0
 62
     5
 63
     7
421
 16777215
 74
     0
 91
        0
 64
     7
 65
   257
 75
     1
175
     1
 42
1.0
 92
        8
 66
   257
 43
1.0
 76
     1
 77
     6
 78
     2
 67
     7
 79
     3
170
     0
171
     0
290
     0
174
     0
 93
       13
 44
0.0
173
     0
291
     0
 45
0.0
1001
ACAD
1000
AcDbSavedByObjectVersion
1070
     0
  0
VISUALSTYLE
  5
1030B
102
{ACAD_XDICTIONARY
360
10370
102
}
102
{ACAD_REACTORS
330
102F6
102
}
330
102F6
100
AcDbVisualStyle
  2
Shaded
 70
    27
 71
     2
 72
     2
 73
     1
 90
        2
 40
-0.6
 41
30.0
 62
     5
 63
     7
421
 16777215
 74
     0
 91
        4
 64
     7
 65
   257
 75
     1
175
     1
 42
1.0
 92
        8
 66
   257
 43
1.0
 76
     1
 77
     6
 78
     2
 67
     8
425
  7895160
 79
     3
170
     0
171
     0
290
     0
174
     0
 93
        5
 44
0.0
173
     0
291
     0
 45
0.0
1001
ACAD
1000
AcDbSavedByObjectVersion
1070
     0
  0
VISUALSTYLE
  5
1030A
102
{ACAD_XDICTIONARY
360
1036E
102
}
102
{ACAD_REACTORS
330
102F6
102
}
330
102F6
100
AcDbVisualStyle
  2
Shaded with edges
 70
    26
 71
     2
 72
     2
 73
     1
 90
        2
 40
-0.6
 41
30.0
 62
     5
 63
     7
421
 16777215
 74
     1
 91
       10
 64
     7
 65
   257
 75
     2
175
     1
 42
1.0
 92
        8
 66
   257
 43
1.0
 76
     1
 77
     6
 78
     2
 67
     7
 79
     3
170
     0
171
     0
290
     0
174
     0
 93
        5
 44
0.0
173
     0
291
     0
 45
0.0
1001
ACAD
1000
AcDbSavedByObjectVersion
1070
     0
  0
VISUALSTYLE
  5
10307
102
{ACAD_XDICTIONARY
360
10368
102
}
102
{ACAD_REACTORS
330
102F6
102
}
330
102F6
100
AcDbVisualStyle
  2
Shades of Gray
 70
    23
 71
     2
 72
     2
 73
     3
 90
        0
 40
-0.6
 41
-30.0
 62
     5
 63
     7
421
 16777215
 74
     2
 91
        2
 64
     7
 65
     7
 75
     1
175
     1
 42
40.0
 92
        8
 66
     7
 43
1.0
 76
     1
 77
     6
 78
     2
 67
     7
 79
     3
170
     0
171
     0
290
     0
174
     0
 93
        1
 44
0.0
173
     0
291
     0
 45
0.0
1001
ACAD
1000
AcDbSavedByObjectVersion
1070
     0
  0
VISUALSTYLE
  5
10308
102
{ACAD_XDICTIONARY
360
1036A
102
}
102
{ACAD_REACTORS
330
102F6
102
}
330
102F6
100
AcDbVisualStyle
  2
Sketchy
 70
    24
 71
     1
 72
     2
 73
     2
 90
        0
 40
-0.6
 41
-30.0
 62
     5
 63
     7
421
 16777215
 74
     2
 91
        2
 64
     7
 65
     7
 75
     1
175
     1
 42
40.0
 92
       11
 66
     7
 43
1.0
 76
     1
 77
     6
 78
     2
 67
     7
 79
     6
170
     0
171
     0
290
     0
174
     0
 93
        1
 44
0.0
173
     0
291
     0
 45
0.0
1001
ACAD
1000
AcDbSavedByObjectVersion
1070
     0
  0
VISUALSTYLE
  5
10303
102
{ACAD_XDICTIONARY
360
10360
102
}
102
{ACAD_REACTORS
330
102F6
102
}
330
102F6
100
AcDbVisualStyle
  2
Thicken
 70
    13
 71
     2
 72
     2
 73
     0
 90
        0
 40
-0.6
 41
-30.0
 62
     5
 63
     7
421
 16777215
 74
     1
 91
        4
 64
     7
 65
   257
 75
     1
175
     1
 42
1.0
 92
       12
 66
     7
 43
1.0
 76
     1
 77
     6
 78
     2
 67
     7
 79
     5
170
     0
171
     0
290
     0
174
     0
 93
        1
 44
0.0
173
     0
291
     1
 45
0.0
1001
ACAD
1000
AcDbSavedByObjectVersion
1070
     0
  0
VISUALSTYLE
  5
102FD
102
{ACAD_XDICTIONARY
360
10354
102
}
102
{ACAD_REACTORS
330
102F6
102
}
330
102F6
100
AcDbVisualStyle
  2
Wireframe
 70
     5
 71
     0
 72
     2
 73
     0
 90
        0
 40
-0.6
 41
-30.0
 62
     5
 63
     7
421
 16777215
 74
     1
 91
        4
 64
     7
 65
   257
 75
     1
175
     1
 42
1.0
 92
        0
 66
   257
 43
1.0
 76
     1
 77
     6
 78
     2
 67
     7
 79
     3
170
     0
171
     0
290
     0
174
     0
 93
        1
 44
0.0
173
     0
291
     0
 45
0.0
1001
ACAD
1000
AcDbSavedByObjectVersion
1070
     0
  0
VISUALSTYLE
  5
10309
102
{ACAD_XDICTIONARY
360
1036C
102
}
102
{ACAD_REACTORS
330
102F6
102
}
330
102F6
100
AcDbVisualStyle
  2
X-Ray
 70
    25
 71
     2
 72
     2
 73
     1
 90
        1
 40
0.5
 41
-30.0
 62
     5
 63
     7
421
 16777215
 74
     1
 91
        0
 64
     7
 65
   257
 75
     1
175
     1
 42
1.0
 92
        8
 66
     7
 43
1.0
 76
     1
 77
     6
 78
     2
 67
     7
 79
     3
170
     0
171
     0
290
     0
174
     0
 93
       13
 44
0.0
173
     0
291
     0
 45
0.0
1001
ACAD
1000
AcDbSavedByObjectVersion
1070
     0
  0
DICTIONARYVAR
  5
1033A
102
{ACAD_REACTORS
330
185D
102
}
330
185D
100
DictionaryVariables
280
     0
  1
1:1
  0
DICTIONARYVAR
  5
10339
102
{ACAD_REACTORS
330
185D
102
}
330
185D
100
DictionaryVariables
280
     0
  1
STANDARD
  0
DICTIONARYVAR
  5
2667
102
{ACAD_REACTORS
330
185D
102
}
330
185D
100
DictionaryVariables
280
     0
  1
STANDARD
  0
DICTIONARYVAR
  5
261A
102
{ACAD_REACTORS
330
185D
102
}
330
185D
100
DictionaryVariables
280
     0
  1
1
  0
DICTIONARYVAR
  5
31C0
102
{ACAD_REACTORS
330
185D
102
}
330
185D
100
DictionaryVariables
280
     0
  1

  0
DICTIONARYVAR
  5
185E
102
{ACAD_REACTORS
330
185D
102
}
330
185D
100
DictionaryVariables
280
     0
  1
96
  0
XRECORD
  5
10094
102
{ACAD_REACTORS
330
10093
102
}
330
10093
100
AcDbXrecord
280
     1
330
F64B
330
F99D
330
F99E
330
F99F
330
F9A0
330
F9A1
330
F9A2
330
F9A3
330
F9A4
330
F9A8
330
FA6B
330
0
330
0
330
0
330
0
330
FA56
  0
DICTIONARY
  5
8151
330
8144
100
AcDbDictionary
280
     1
281
     1
  3
ADSK_XREC_LAYOUTTHUMBNAIL
360
8152
  0
DICTIONARY
  5
102EF
330
102EE
100
AcDbDictionary
280
     1
281
     1
  3
ACAD_XREC_ROUNDTRIP
360
10347
  3
BUMPTILE
360
102F1
  3
DIFFUSETILE
360
102F0
  3
OPACITYTILE
360
102F4
  3
REFLECTIONTILE
360
102F3
  3
REFRACTIONTILE
360
102F5
  3
SPECULARTILE
360
102F2
  0
DICTIONARY
  5
102E7
330
102E6
100
AcDbDictionary
280
     1
281
     1
  3
ACAD_XREC_ROUNDTRIP
360
10346
  3
BUMPTILE
360
102E9
  3
DIFFUSETILE
360
102E8
  3
OPACITYTILE
360
102EC
  3
REFLECTIONTILE
360
102EB
  3
REFRACTIONTILE
360
102ED
  3
SPECULARTILE
360
102EA
  0
DICTIONARY
  5
10344
330
FA61
100
AcDbDictionary
280
     1
281
     1
  3
ACAD_XREC_ROUNDTRIP
360
10345
  0
DICTIONARY
  5
1033E
330
10322
100
AcDbDictionary
280
     1
281
     1
  3
ACAD_XREC_ROUNDTRIP
360
1033F
  0
DICTIONARY
  5
1033C
330
264F
100
AcDbDictionary
280
     1
281
     1
  3
ACAD_ROUNDTRIP_2008_TABLESTYLE_CELLSTYLEMAP
360
1033D
  3
ACAD_XREC_ROUNDTRIP
360
10343
  0
DICTIONARY
  5
10352
330
102FC
100
AcDbDictionary
280
     1
281
     1
  3
ACAD_XREC_ROUNDTRIP
360
10353
  0
DICTIONARY
  5
10350
330
102FB
100
AcDbDictionary
280
     1
281
     1
  3
ACAD_XREC_ROUNDTRIP
360
10351
  0
DICTIONARY
  5
1035E
330
10302
100
AcDbDictionary
280
     1
281
     1
  3
ACAD_XREC_ROUNDTRIP
360
1035F
  0
DICTIONARY
  5
10366
330
10306
100
AcDbDictionary
280
     1
281
     1
  3
ACAD_XREC_ROUNDTRIP
360
10367
  0
DICTIONARY
  5
10358
330
102FF
100
AcDbDictionary
280
     1
281
     1
  3
ACAD_XREC_ROUNDTRIP
360
10359
  0
DICTIONARY
  5
1035C
330
10301
100
AcDbDictionary
280
     1
281
     1
  3
ACAD_XREC_ROUNDTRIP
360
1035D
  0
DICTIONARY
  5
10376
330
1030E
100
AcDbDictionary
280
     1
281
     1
  3
ACAD_XREC_ROUNDTRIP
360
10377
  0
DICTIONARY
  5
10364
330
10305
100
AcDbDictionary
280
     1
281
     1
  3
ACAD_XREC_ROUNDTRIP
360
10365
  0
DICTIONARY
  5
10348
330
102F7
100
AcDbDictionary
280
     1
281
     1
  3
ACAD_XREC_ROUNDTRIP
360
10349
  0
DICTIONARY
  5
1034A
330
102F8
100
AcDbDictionary
280
     1
281
     1
  3
ACAD_XREC_ROUNDTRIP
360
1034B
  0
DICTIONARY
  5
1034C
330
102F9
100
AcDbDictionary
280
     1
281
     1
  3
ACAD_XREC_ROUNDTRIP
360
1034D
  0
DICTIONARY
  5
1034E
330
102FA
100
AcDbDictionary
280
     1
281
     1
  3
ACAD_XREC_ROUNDTRIP
360
1034F
  0
DICTIONARY
  5
10356
330
102FE
100
AcDbDictionary
280
     1
281
     1
  3
ACAD_XREC_ROUNDTRIP
360
10357
  0
DICTIONARY
  5
10372
330
1030C
100
AcDbDictionary
280
     1
281
     1
  3
ACAD_XREC_ROUNDTRIP
360
10373
  0
DICTIONARY
  5
10362
330
10304
100
AcDbDictionary
280
     1
281
     1
  3
ACAD_XREC_ROUNDTRIP
360
10363
  0
DICTIONARY
  5
10374
330
1030D
100
AcDbDictionary
280
     1
281
     1
  3
ACAD_XREC_ROUNDTRIP
360
10375
  0
DICTIONARY
  5
1035A
330
10300
100
AcDbDictionary
280
     1
281
     1
  3
ACAD_XREC_ROUNDTRIP
360
1035B
  0
DICTIONARY
  5
10370
330
1030B
100
AcDbDictionary
280
     1
281
     1
  3
ACAD_XREC_ROUNDTRIP
360
10371
  0
DICTIONARY
  5
1036E
330
1030A
100
AcDbDictionary
280
     1
281
     1
  3
ACAD_XREC_ROUNDTRIP
360
1036F
  0
DICTIONARY
  5
10368
330
10307
100
AcDbDictionary
280
     1
281
     1
  3
ACAD_XREC_ROUNDTRIP
360
10369
  0
DICTIONARY
  5
1036A
330
10308
100
AcDbDictionary
280
     1
281
     1
  3
ACAD_XREC_ROUNDTRIP
360
1036B
  0
DICTIONARY
  5
10360
330
10303
100
AcDbDictionary
280
     1
281
     1
  3
ACAD_XREC_ROUNDTRIP
360
10361
  0
DICTIONARY
  5
10354
330
102FD
100
AcDbDictionary
280
     1
281
     1
  3
ACAD_XREC_ROUNDTRIP
360
10355
  0
DICTIONARY
  5
1036C
330
10309
100
AcDbDictionary
280
     1
281
     1
  3
ACAD_XREC_ROUNDTRIP
360
1036D
  0
XRECORD
  5
8152
102
{ACAD_REACTORS
330
8151
102
}
330
8151
100
AcDbXrecord
280
     1
310
28000000B40000008B0000000100080000000000BC61000000000000000000000001000000000000FFFFFF0000000000FFFFFF000000000000000000000000000000000000000000000000000000000000000000330000006600000099000000CC000000FF00000000330000333300006633000099330000CC330000FF3300
310
0000660000336600006666000099660000CC660000FF66000000990000339900006699000099990000CC990000FF99000000CC000033CC000066CC000099CC0000CCCC0000FFCC000000FF000033FF000066FF000099FF0000CCFF0000FFFF000000003300330033006600330099003300CC003300FF003300003333003333
310
33006633330099333300CC333300FF33330000663300336633006666330099663300CC663300FF66330000993300339933006699330099993300CC993300FF99330000CC330033CC330066CC330099CC3300CCCC3300FFCC330000FF330033FF330066FF330099FF3300CCFF3300FFFF330000006600330066006600660099
310
006600CC006600FF00660000336600333366006633660099336600CC336600FF33660000666600336666006666660099666600CC666600FF66660000996600339966006699660099996600CC996600FF99660000CC660033CC660066CC660099CC6600CCCC6600FFCC660000FF660033FF660066FF660099FF6600CCFF6600
310
FFFF660000009900330099006600990099009900CC009900FF00990000339900333399006633990099339900CC339900FF33990000669900336699006666990099669900CC669900FF66990000999900339999006699990099999900CC999900FF99990000CC990033CC990066CC990099CC9900CCCC9900FFCC990000FF99
310
0033FF990066FF990099FF9900CCFF9900FFFF99000000CC003300CC006600CC009900CC00CC00CC00FF00CC000033CC003333CC006633CC009933CC00CC33CC00FF33CC000066CC003366CC006666CC009966CC00CC66CC00FF66CC000099CC003399CC006699CC009999CC00CC99CC00FF99CC0000CCCC0033CCCC0066CC
310
CC0099CCCC00CCCCCC00FFCCCC0000FFCC0033FFCC0066FFCC0099FFCC00CCFFCC00FFFFCC000000FF003300FF006600FF009900FF00CC00FF00FF00FF000033FF003333FF006633FF009933FF00CC33FF00FF33FF000066FF003366FF006666FF009966FF00CC66FF00FF66FF000099FF003399FF006699FF009999FF00CC
310
99FF00FF99FF0000CCFF0033CCFF0066CCFF0099CCFF00CCCCFF00FFCCFF0000FFFF0033FFFF0066FFFF0099FFFF00CCFFFF00FFFFFF00000000000D0D0D001A1A1A00282828003535350043434300505050005D5D5D006B6B6B00787878008686860093939300A1A1A100AEAEAE00BBBBBB00C9C9C900D6D6D600E4E4E400
310
F1F1F100FFFFFF0000000000000000000000000000000000000000000000000000000000000000000000000000000000EFE2E2E2E2E2E2E2E2E2E2E2E2E2E2E2E2E2E2E2E2E2E2E2E2E2E2E2E2E2E2E2E2E2E2E2E2E2E2E2E2E2E2E2E2E2E2E2E2E2E2E2E2E2E2E2E2E2E2E2E2E2E2E2E2E2E2E2E2E2E2E2E2E2E2E2E2E2E2
310
E2E2E2E2E2E2E2E2E2E2E2E2E2E2E2E2E2E2E2E2E2E2E2E2E2E2E2E2E2E2E2E2E2E2E2E2E2E2E2E2E2E2E2E2E2E2E2E2E2E2E2E2E2E2E2E2E2E2E2E2E2E2E2E2E2E2E2E2E2E2E2E2E2E2E2E2E2E2E2E2E2E2E2E2E2E2E2E2E2E2E2E2E2E2E2E2E2E2E2E2E2EFE2F5F5F5F5F5F5F5F5F5F5F5F5F5F5F5F5F5F5F5F5F5F5F5F5
310
F5F5F5F5F5F5F5F5F5F5F5F5F5F5F5F5F5F5F5F5F5F5F5F5F5F5F5F5F5F5F5F5F5F5F5F5F5F5F5F5F5F5F5F5F5F5F5F5F5F5F5F5F5F5F5F5F5F5F5F5F5F5F5F5F5F5F5F5F5F5F5F5F5F5F5F5F5F5F5F5F5F5F5F5F5F5F5F5F5F5F5F5F5F5F5F5F5F5F5F5F5F5F5F5F5F5F5F5F5F5F5F5F5F5F5F5F5F5F5F5F5F5F5F5F5F5F5
310
F5F5F5F5F5F5F5F5F5F5F5F5F5F5F5F5F5F5F5F5F5F5F5F5F5F5E2EFE2F5F5F5F5F5F5F5F5F5F5F5F5F5F5F5F5F5F5F5F5F5F5F5F5F5F5F5F5F5F5F5F5F5F5F5F5F5F5F5F5F5F5F5F5F5F5F5F5F5F5F5F5F5F5F5F5F5F5F5F5F5F5F5F5F5F5F5F5F5F5F5F5F5F5F5F5F5F5F5F5F5F5F5F5F5F5F5F5F5F5F5F5F5F5F5F5F5F5
310
F5F5F5F5F5F5F5F5F5F5F5F5F5F5F5F5F5F5F5F5F5F5F5F5F5F5F5F5F5F5F5F5F5F5F5F5F5F5F5F5F5F5F5F5F5F5F5F5F5F5F5F5F5F5F5F5F5F5F5F5F5F5F5F5F5F5F5F5F5F5F5F5F5F5F5F5F5F5F5E2EFE2F5F5F5F5F5F5F5F5F5F5F5F5F5F5F5F5F5F5F5F5F5F5F5F5F5F5F5F5F5F5F5F5F5F5F5F5F5F5F5F5F5F5F5F5F5
310
F5F5F5F5F5F5F5F5F5F5F5F5F5F5F5F5F5F5F5F5F5F5F5F5F5F5F5F5F5F5F5F5F5F5F5F5F5F5F5F5F5F5F5F5F5F5F5F5F5F5F5F5F5F5F5F5F5F5F5F5F5F5F5F5F5F5F5F5F5F5F5F5F5F5F5F5F5F5F5F5F5F5F5F5F5F5F5F5F5F5F5F5F5F5F5F5F5F5F5F5F5F5F5F5F5F5F5F5F5F5F5F5F5F5F5F5F5F5F5F5F5F5F5F5F5F5F5
310
F5F5F5F5F5E2EFE2F5F5F5F5F5F5F5F5F5F5F5F5F5F5F5F5F5F5F5F5F5F5F5F5F5F5F5F5F5F5F5F5F5F5F5F5F5F5F5F5F5F5F5F5F5F5F5F5F5F5F5F5F5F5F5F5F5F5F5F5F5F5F5F5F5F5F5F5F5F5F5F5F5F5F5F5F5F5F5F5F5F5F5F5F5F5F5F5F5F5F5F5F5F5F5F5F5F5F5F5F5F5F5F5F5F5F5F5F5F5F5F5F5F5F5F5F5F5F5
310
F5F5F5F5F5F5F5F5F5F5F5F5F5F5F5F5F5F5F5F5F5F5F5F5F5F5F5F5F5F5F5F5F5F5F5F5F5F5F5F5F5F5F5F5F5F5F5F5F5F5F5F5F5F5F5F5F5F5E2EFE2F5F5F5F5F5F5F5F5F5F5F5F5F5F5F5F5F5F5F5F5F5F5F5F5F5F5F5F5F5F5F5F5F5F5F5F5F5F5F5F5F5F5F5F5F5F5F5F5F5F5F5F5F5F5F5F5F5F5F5F5F5F5F5F5F5F5
310
F5F5F5F5F5F5F5F5F5F5F5F5F5F5F5F5F5F5F5F5F5F5F5F5F5F5F5F5F5F5F5F5F5F5F5F5F5F5F5F5F5F5F5F5F5F5F5F5F5F5F5F5F5F5F5F5F5F5F5F5F5F5F5F5F5F5F5F5F5F5F5F5F5F5F5F5F5F5F5F5F5F5F5F5F5F5F5F5F5F5F5F5F5F5F5F5F5F5F5F5F5F5F5F5F5F5F5F5F5F5F5E2EFE2F5F5F5F5F5F5F5F5F5F5F5F5F5
310
F5F5F5F5F5F5F5F5F5F5F5F5F5F5F5F5F5F5F5F5F5F5F5F5F5F5F5F5F5F5F5F5F5F5F5F5F5F5F5F5F5F5F5F5F5F5F5F5F5F5F5F5F5F5F5F5F5F5F5F5F5F5F5F5F5F5F5F5F5F5F5F5F5F5F5F5F5F5F5F5F5F5F5F5F5F5F5F5F5F5F5F5F5F5F5F5F5F5F5F5F5F5F5F5F5F5F5F5F5F5F5F5F5F5F5F5F5F5F5F5F5F5F5F5F5F5F5
310
F5F5F5F5F5F5F5F5F5F5F5F5F5F5F5F5F5F5F5F5F5F5F5F5F5F5F5F5F5F5F5F5F5F5F5F5F5E2EFE2F5F5F5F5F5F5F5F5F5F5F5F5F5F5F5F5F5F5F5F5F5F5F5F5F5F5F5F5F5F5F5F5F5F5F5F5F5F5F5F5F5F5F5F5F5F5F5F5F5F5F5F5F5F5F5F5F5F5F5F5F5F5F5F5F5F5F5F5F5F5F5F5F5F5F5F5F5F5F5F5F5F5F5F5F5F5F5
310
F5F5F5F5F5F5F5F5F5F5F5F5F5F5F5F5F5F5F5F5F5F5F5F5F5F5F5F5F5F5F5F5F5F5F5F5F5F5F5F5F5F5F5F5F5F5F5F5F5F5F5F5F5F5F5F5F5F5F5F5F5F5F5F5F5F5F5F5F5F5F5F5F5F5F5F5F5F5F5F5F5F5F5F5F5F5F5F5F5F5E2EFE2F5F5F5F5F5F5F5F5F5F5F5F5F5F5F5F5F5F5F5F5F5F5F5F5F5F5F5F5F5F5F5F5F5F5
310
F5F5F5F5F5F5F5F5F5F5F5F5F5F5F5F5F5F5F5F5F5F5F5F5F5F5F5F5F5F5F5F5F5F5F5F5F5F5F5F5F5F5F5F5F5F5F5F5F5F5F5F5F5F5F5F5F5F5F5F5F5F5F5F5F5F5F5F5F5F5F5F5F5F5F5F5F5F5F5F5F5F5F5F5F5F5F5F5F5F5F5F5F5F5F5F5F5F5F5F5F5F5F5F5F5F5F5F5F5F5F5F5F5F5F5F5F5F5F5F5F5F5F5F5F5F5F5
310
F5F5F5F5F5F5F5F5F5F5F5F5F5F5F5F5E2EFE2F5F5F5F5F5F5F5F5F5F5F5F5F5F5F5F5F5F5F5F5F5F5F5F5F5F5F5F5F5F5F5F5F5F5F5F5F5F5F5F5F5F5F5F5F5F5F5F5F5F5F5F5F5F5F5F5F5F5F5F5F5F5F5F5F5F5F5F5F5F5F5F5F5F5F5F5F5F5F5F5F5F5F5F5F5F5F5F5F5F5F5F5F5F5F5F5F5F5F5F5F5F5F5F5F5F5F5F5
310
F5F5F5F5F5F5F5F5F5F5F5F5F5F5F5F5F5F5F5F5F5F5F5F5F5F5F5F5F5F5F5F5F5F5F5F5F5F5F5F5F5F5F5F5F5F5F5F5F5F5F5F5F5F5F5F5F5F5F5F5F5F5F5F5F5F5F5F5F5E2EFE2F5F5F5F5F5F5F5F5F5F5F5F5F5F5F5F5F5F5F5F5F5F5F5F5F5F5F5F5F5F5F5F5F5F5F5F5F5F5F5F5F5F5F5F5F5F5F5F5F5F5F5F5F5F5F5
310
F5F5F5F5F5F5F5F5F5F5F5F5F5F5F5F5F5F5F5F5F5F5F5F5F5F5F5F5F5F5F5F5F5F5F5F5F5F5F5F5F5F5F5F5F5F5F5F5F5F5F5F5F5F5F5F5F5F5F5F5F5F5F5F5F5F5F5F5F5F5F5F5F5F5F5F5F5F5F5F5F5F5F5F5F5F5F5F5F5F5F5F5F5F5F5F5F5F5F5F5F5F5F5F5F5F5F5F5F5F5F5F5F5F5F5F5F5F5F5F5F5F5E2EFE2F5F5
310
F5F5F5F5F5F5F5F5F5F5F5F5F5F5F5F5F5F5F5F5F5F5F5F5F5F5F5F5F5F5F5F5F5F5F5F5F5F5F5F5F5F5F5F5F5F5F5F5F5F5F5F5F5F5F5F5F5F5F5F5F5F5F5F5F5F5F5F5F5F5F5F5F5F5F5F5F5F5F5F5F5F5F5F5F5F5F5F5F5F5F5F5F5F5F5F5F5F5F5F5F5F5F5F5F5F5F5F5F5F5F5F5F5F5F5F5F5F5F5F5F5F5F5F5F5F5F5
310
F5F5F5F5F5F5F5F5F5F5F5F5F5F5F5F5F5F5F5F5F5F5F5F5F5F5F5F5F5F5F5F5F5F5F5F5F5F5F5F5F5F5F5F5F5F5F5F5E2EFE2F5F5F5F5F5F5F5F5F5F5F5F5F5F5F5F5F5F5F5F5F5F5F5F5F5F5F5F5F5F5F5F5F5F5F5F5F5F5F5F5F5F5F5F5F5F5F5F5F5F5F5F5F5F5F5F5F5F5F5F5F5F5F5F5F5F5F5F5F5F5F5F5F5F5F5F5
310
F5F5F5F5F5F5F5F5F5F5F5F5F5F5F5F5F5F5F5F5F5F5F5F5F5F5F5F5F5F5F5F5F5F5F5F5F5F5F5F5F5F5F5F5F5F5F5F5F5F5F5F5F5F5F5F5F5F5F5F5F5F5F5F5F5F5F5F5F5F5F5F5F5F5F5F5F5F5F5F5F5F5F5F5F5F5F5F5F5F5F5F5F5F5F5F5F5F5F5F5F5E2EFE2F5F5F5F5F5F5F5F5F5F5F5F5F5F5F5F5F5F5F5F5F5F5F5
310
F5F5F5F5F5F5F5F5F5F5F5F5F5F5F5F5F5F5F5F5F5F5F5F5F5F5F5F5F5F5F5F5F5F5F5F5F5F5F5F5F5F5F5F5F5F5F5F5F5F5F5F5F5F5F5F5F5F5F5F5F5F5F5F5F5F5F5F5F5F5F5F5F5F5F5F5F5F5F5F5F5F5F5F5F5F5F5F5F5F5F5F5F5F5F5F5F5F5F5F5F5F5F5F5F5F5F5F5F5F5F5F5F5F5F5F5F5F5F5F5F5F5F5F5F5F5F5
310
F5F5F5F5F5F5F5F5F5F5F5F5F5F5F5F5F5F5F5F5F5F5F5F5F5F5F5E2EFE2F5F5F5F5F5F5F5F5F5F5F5F5F5F5F5F5F5F5F5F5F5F5F5F5F5F5F5F5F5F5F5F5F5F5F5F5F5F5F5F5F5F5F5F5F5F5F5F5F5F5F5F5F5F5F5F5F5F5F5F5F5F5F5F5F5F5F5F5F5F5F5F5F5F5F5F5F5F5F5F5F5F5F5F5F5F5F5F5F5F5F5F5F5F5F5F5F5
310
F5F5F5F5F5F5F5F5F5F5F5F5F5F5F5F5F5F5F5F5F5F5F5F5F5F5F5F5F5F5F5F5F5F5F5F5F5F5F5F5F5F5F5F5F5F5F5F5F5F5F5F5F5F5F5F5F5F5F5F5F5F5F5F5F5F5F5F5F5F5F5F5F5F5F5F5F5F5F5F5E2EFE2F5F5F5F5F5F5F5F5F5F5F5F5F5F5F5F5F5F5F5F5F5F5F5F5F5F5F5F5F5F5F5F5F5F5F5F5F5F5F5F5F5F5F5F5
310
F5F5F5F5F5F5F5F5F5F5F5F5F5F5F5F5F5F5F5F5F5F5F5F5F5F5F5F5F5F5F5F5F5F5F5F5F5F5F5F5F5F5F5F5F5F5F5F5F5F5F5F5F5F5F5F5F5F5F5F5F5F5F5F5F5F5F5F5F5F5F5F5F5F5F5F5F5F5F5F5F5F5F5F5F5F5F5F5F5F5F5F5F5F5F5F5F5F5F5F5F5F5F5F5F5F5F5F5F5F5F5F5F5F5F5F5F5F5F5F5F5F5F5F5F5F5F5
310
F5F5F5F5F5F5E2EFE2F5F5F5F5F5F5F5F5F5F5F5F5F5F5F5F5F5F5F5F5F5F5F5F5F5F5F5F5F5F5F5F5F5F5F5F5F5F5F5F5F5F5F5F5F5F5F5F5F5F5F5F5F5F5F5F5F5F5F5F5F5F5F5F5F5F5F5F5F5F5F5F5F5F5F5F5F5F5F5F5F5F5F5F5F5F5F5F5F5F5F5F5F5F5F5F5F5F5F5F5F5F5F5F5F5F5F5F5F5F5F5F5F5F5F5F5F5F5
310
F5F5F5F5F5F5F5F5F5F5F5F5F5F5F5F5F5F5F5F5F5F5F5F5F5F5F5F5F5F5F5F5F5F5F5F5F5F5F5F5F5F5F5F5F5F5F5F5F5F5F5F5F5F5F5F5F5F5F5E2EFE2F5F5F5F5F5F5F5F5F5F5F5F5F5F5F5F5F5F5F5F5F5F5F5F5F5F5F5F5F5F5F5F5F5F5F5F5F5F5F5F5F5F5F5F5F5F5F5F5F5F5F5F5F5F5F5F5F5F5F5F5F5F5F5F5F5
310
F5F5F5F5F5F5F5F5F5F5F5F5F5F5F5F5F5F5F5F5F5F5F5F5F5F5F5F5F5F5F5F5F5F5F5F5F5F5F5F5F5F5F5F5F5F5F5F5F5F5F5F5F5F5F5F5F5F5F5F5F5F5F5F5F5F5F5F5F5F5F5F5F5F5F5F5F5F5F5F5F5F5F5F5F5F5F5F5F5F5F5F5F5F5F5F5F5F5F5F5F5F5F5F5F5F5F5F5F5F5F5F5E2EFE2F5F5F5F5F5F5F5F5F5F5F5F5
310
F5F5F5F5F5F5F5F5F5F5F5F5F5F5F5F5F5F5F5F5F5F5F5F5F5F5F5F5F5F5F5F5F5F5F5F5F5F5F5F5F5F5F5F5F5F5F5F5F5F5F5F5F5F5F5F5F5F5F5F5F5F5F5F5F5F5F5F5F5F5F5F5F5F5F5F5F5F5F5F5F5F5F5F5F5F5F5F5F5F5F5F5F5F5F5F5F5F5F5F5F5F5F5F5F5F5F5F5F5F5F5F5F5F5F5F5F5F5F5F5F5F5F5F5F5F5F5
310
F5F5F5F5F5F5F5F5F5F5F5F5F5F5F5F5F5F5F5F5F5F5F5F5F5F5F5F5F5F5F5F5F5F5F5F5F5F5E2EFE2F5F5F5F5F5F5F5F5F5F5F5F5F5F5F5F5F5F5F5F5F5F5F5F5F5F5F5F5F5F5F5F5F5F5F5F5F5F5F5F5F5F5F5F5F5F5F5F5F5F5F5F5F5F5F5F5F5F5F5F5F5F5F5F5F5F5F5F5F5F5F5F5F5F5F5F5F5F5F5F5F5F5F5F5F5F5
310
F5F5F5F5F5F5F5F5F5F5F5F5F5F5F5F5F5F5F5F5F5F5F5F5F5F5F5F5F5F5F5F5F5F5F5F5F5F5F5F5F5F5F5F5F5F5F5F5F5F5F5F5F5F5F5F5F5F5F5F5F5F5F5F5F5F5F5F5F5F5F5F5F5F5F5F5F5F5F5F5F5F5F5F5F5F5F5F5F5F5F5E2EFE2F5F5F5F5F5F5F5F5F5F5F5F5F5F5F5F5F5F5F5F5F5F5F5F5F5F5F5F5F5F5F5F5F5
310
F5F5F5F5F5F5F5F5F5F5F5F5F5F5F5F5F5F5F5F5F5F5F5F5F5F5F5F5F5F5F5F5F5F5F5F5F5F5F5F5F5F5F5F5F5F5F5F5F5F5F5F5F5F5F5F5F5F5F5F5F5F5F5F5F5F5F5F5F5F5F5F5F5F5F5F5F5F5F5F5F5F5F5F5F5F5F5F5F5F5F5F5F5F5F5F5F5F5F5F5F5F5F5F5F5F5F5F5F5F5F5F5F5F5F5F5F5F5F5F5F5F5F5F5F5F5F5
310
F5F5F5F5F5F5F5F5F5F5F5F5F5F5F5F5F5E2EFE2F5F5F5F5F5F5F5F5F5F5F5F5F5F5F5F5F5F5F5F5F5E2E2E2E2E2E2E2E2E2E2E2E2E2E2E2E2E2E2E2E2E2E2E2E2E2E2E2E2E2E2E2E2E2E2E2E2E2E2E2E2E2E2E2E2E2E2E2E2E2E2E2E2E2E2E2E2E2E2E2E2E2E2E2E2E2E2E2E2E2E2E2E2E2E2E2E2E2E2E2E2E2E2E2E2E2E2
310
E2E2E2E2E2E2E2E2E2E2E2E2E2E2E2E2E2E2E2E2E2E2E2E2E2E2E2E2E2E2E2E2E2E2E2E2E2E2E2E2E2E2E2E2E2E2E2E2E2F5F5F5F5F5F5F5F5F5F5F5F5F5F5F5F5F5F5F5F5F5E2EFE2F5F5F5F5F5F5F5F5F5F5F5F5F5F5F5F5F5F5F5F5F5E2E2E2E2E2E2E2E2E2E2E2E2E2E2E2E2E2E2E2E2E2E2E2E2E2E2E2E2E2E2E2E2E2
310
E2E2E2E2E2E2E2E2E2E2E2E2E2E2E2E2E2E2E2E2E2E2E2E2E2E2E2E2E2E2E2E2E2E2E2E2E2E2E2E2E2E2E2E2E2E2E2E2E2E2E2E2E2E2E2E2E2E2E2E2E2E2E2E2E2E2E2E2E2E2E2E2E2E2E2E2E2E2E2E2E2E2E2E2E2E2E2E2E2E2E2E2E2E2E2E2E2E2E2E2E2E2F5F5F5F5F5F5F5F5F5F5F5F5F5F5F5F5F5F5F5F5F5E2EFE2F5
310
F5F5F5F5F5F5F5F5F5F5F5F5F5F5F5F5F5F5F5F5E2E2F5F5F5F5F5F5F5F5F5F5F5F5F5F5F5F5F5F5F5F5F5F5F5F5F5F5F5F5F5F5F5F5F5F5F5F5F5F5F5F5F5F5F5F5F5F5F5F5F5F5F5F5F5F5F5F5F5F5F5F5F5F5F5F5F5F5F5F5F5F5F5F5F5F5F5F5F5F5F5F5F5F5F5F5F5F5F5F5F5F5F5F5F5F5F5F5F5F5F5F5F5F5F5F5F5
310
F5F5F5F5F5F5F5F5F5F5F5F5F5F5F5F5F5F5E2E2E2E2F5F5F5F5E2E2F5F5F5F5F5F5F5F5F5F5F5F5F5F5F5F5F5F5F5F5F5E2EFE2F5F5F5F5F5F5F5F5F5F5F5F5F5F5F5F5F5F5F5F5F5E2E2F5F5F5F5F5F5F5F5F5F5F5F5F5F5F5F5F5F5F5F5F5F5F5F5F5F5F5F5F5F5F5F5F5F5F5F5F5F5F5F5F5F5F5F5F5F5F5F5F5F5F5F5
310
F5F5F5F5F5F5F5F5F5F5F5F5F5F5F5F5F5F5F5F5F5F5F5F5F5F5F5F5F5F5F5F5F5F5F5F5F5F5F5F5F5F5F5F5F5F5F5F5F5F5F5F5F5F5F5F5F5F5F5F5F5F5F5F5F5F5F5F5F5F5F5E2E2E2F5F5F5F5F5E2E2F5F5F5F5F5F5F5F5F5F5F5F5F5F5F5F5F5F5F5F5F5E2EFE2F5F5F5F5F5F5F5F5F5F5F5F5F5F5F5F5F5F5F5F5F5E2
310
E2F5F5202020F520202020F520202020202020F5F5F5F5F5F5F5F5F5F5F5F5F5F5F5F5F5F5F5F5F5F5F5F5F5F5F5F5F5F5F5F5F5F5F5F5F5F5F5F5F5F5F5F5F5F5F5F5F5F5F5F5F5F5F5F5F5F5F5F5F5F5F5F5F5F5F5F5F5F5F5F5F5F5F5F5F5F5F5F5F5F5F5F5F5F5F5F5F5F5F5F5F5F5F5F5F5F5F5F5F5F5F5F5F5E2E2F5
310
F5F5F5F5F5E2E2F5F5F5F5F5F5F5F5F5F5F5F5F5F5F5F5F5F5F5F5F5E2EFE2F5F5F5F5F5F5F5F5F5F5F5F5F5F5F5F5F5F5F5F5F5E2E2F5F5F52020F520202020F52020F52020F52020F5F5F5F5F5F5F5F5F5F5F5F5F5F5F5F5F5F5F5F5F5F5F5F5F5F5F5F5F5F5F5F5F5F5F5F5F5F5F5F5F5F5F5F5F5F5F5F5F5F5F5F5F5F5
310
F5F5F5F5F5F5F5F5F5F5F5F5F5F5F5F5F5F5F5F5F5F5F5F5F5F5F5F5F5F5F5F5F5F5F5F5F5F5F5F5F5F5F5F5F5F5F5F5F5F5F5F5F5F5F5F5F5F5E2E2F5F5F5F5F5F5F5F5F5F5F5F5F5F5F5F5F5F5F5F5F5E2EFE2F5F5F5F5F5F5F5F5F5F5F5F5F5F5F5F5F5F5F5F5F5E2E2F5F5202020202020202020202020202020202020
310
F5F5F5F5F5F5F5F5F5F5F5F5F5F5F5F5F5F5F5F5F5F5F5F5F5F5F5F5F5F5F5F5F5F5F5F5F5F5F5F5F5F5F5F5F5F5F5F5F5F5F5F5F5F5F5F5F5F5F5F5F5F5F5F5F5F5F5F5F5F5F5F5F5F5F5F5F5F5F5F5F5F5F5F5F5F5F5F5F5F5F5F5F5F5F5F5F5F5F5F5F5F5F5F5F5F5F5F5F5F5F5E2E2F5F5F5F5F5F5F5F5F5F5F5F5F5F5
310
F5F5F5F5F5F5F5E2EFE2F5F5F5F5F5F5F5F5F5F5F5F5F5F5F5F5F5F5F5F5F5E2E2F5F5202020202020202020202020F52020202020F5F5F5F5F5F5F5F5F5F5F5F5F5F5F5F5F5F5F5F5F5F5F5F5F5F5F5F5F5F5F5F5F5F5F5F5F5F5F5F5F5F5F5F5F5F5F5F5F5F5F5F5F5F5F5F5F5F5F5F5F5F5F5F5F5F5F5F5F5F5F5F5F5F5
310
F5F5F5F5F5F5F5F5F5F5F5F5F5F5F5F5F5F5F5F5F5F5F5F5F5F5F5F5F5F5F5F5F5F5F5F5F5E2E2F5F5F5F5F5F5F5F5F5F5F5F5F5F5F5F5F5F5F5F5F5E2EFE2F5F5F5F5F5F5F5F5F5F5F5F5F5F5F5F5F5F5F5F5F5E2E2F5F5F5F5F5F5F5F5F5F5F5F5F5F5F5F5F5F5F5F5F5F5F5F5F5F5F5F5F5F5F5F5F5F5F5F5F5F5F5F5F5
310
F5F5F5F5F5F5F5F5F5F5F5F5F5F5F5F5F5F5F5F5F5F5F5F5F5F5F5F5F5F5F5F5F5F5F5F5F5F5F5F5F5F5F5F5F5F5F5F5F5F5F5F5F5F5F5F5F5F5F5F5F5F5F5F5F5F5F5F5F5F5F5F5F5F5F5F5F5F5F5F5F5F5F5F5F5F5F5F5F5F5E2E2F5F5F5F5F5F5F5F5F5F5F5F5F5F5F5F5F5F5F5F5F5E2EFE2F5F5F5F5F5F5F5F5F5F5F5
310
F5F5F5F5F5F5F5F5F5F5E2E2F5F5F5F5F5F5F5F5F5F5F5F5F5F5F5F5F5F5F5F5F5F5F5F5F5F5F5F5F5F5F5F5F5F5F5F5F5F5F5F5F5F5F5F5F5F5F5F5F5F5F5F5F5F5F5F5F5F5F5F5F5F5F5F5F5F5F5F5F5F5F5F5F5F5F5F5F5F5F5F5F5F5F5F5F5F5F5F5F5F5F5F5F5F5F5F5F5F5F5F5F5F5F5F5F5F5F5F5F5F5F5F5F5F5F5
310
F5F5F5F5F5F5F5F5F5F5F5F5F5F5F5F5E2E2F5F5F5F5F5F5F5F5F5F5F5F5F5F5F5F5F5F5F5F5F5E2EFE2F5F5F5F5F5F5F5F5F5F5F5F5F5F5F5F5F5F5F5F5F5E2E2F5F5F5F5F5F5F5F5F5F5F5F5F5F5F5F5F5F5F5F5F5F5F5F5F5F5F5F5F5F5F5F5F5F5F5F5F5F5F5F5F5F5F5F5F5F5F5F5F5F5F5F5F5F5F5F5F5F5F5F5F5F5
310
F5F5F5F5F5F5F5F5F5F5F5F5F5F5F5F5F5F5F5F5F5F5F5F5F5F5F5F5F5F5F5F5F5F5F5F5F5F5F5F5F5F5F5F5F5F5F5F5F5F5F5F5F5F5F5F5F5F5F5F5F5F5F5F5F5F5F5F5F5E2E2F5F5F5F5F5F5F5F5F5F5F5F5F5F5F5F5F5F5F5F5F5E2EFE2F5F5F5F5F5F5F5F5F5F5F5F5F5F5F5F5F5F5F5F5F5E2E2F5F5F5F5F5F5F5F5F5
310
F5F5F5F5F5F5F5F5F5F5F5F5F5F5F5F5F5F5F5F5F5F5F5F5F5F5F5F5F5F5F5F5F5F5F5F5F5F5F5F5F5F5F5F5F5F5F5F5F5F5F5F5F5F5F5F5F5F5F5F5F5F5F5F5F5F5F5F5F5F5F5F5F5F5F5F5F5F5F5F5F5F5F5F5F5F5F5F5F5F5F5F5F5F5F5F5F5F5F5F5F5F5F5F5F5F5F5F5F5F5F5F5F5F5F5F5F5F5F5F5F5F5E2E2F5F5F5
310
F5F5F5F5F5F5F5F5F5F5F5F5F5F5F5F5F5F5E2EFE2F5F5F5F5F5F5F5F5F5F5F5F5F5F5F5F5F5F5F5F5F5E2E2F5F5F5F5F5F5F5F5F5F5F5F5F5F5F5F5E2E2E2E2E2E2E2E2E2E2E2E2E2E2E2E2E2E2E2E2E2E2E2E2E2E2E2E2E2E2E2E2E2E2E2E2E2E2E2E2E2E2E2E2E2E2E2E2E2E2E2E2E2E2E2E2E2E2E2E2E2E2E2E2E2E2E2
310
E2E2E2E2E2E2E2E2E2E2E2E2E2E2E2E2E2E2E2E2E2E2E2E2E2E2E2E2E2E2F5F5F5F5F5F5F5F5F5F5F5F5F5F5F5F5F5F5E2E2F5F5F5F5F5F5F5F5F5F5F5F5F5F5F5F5F5F5F5F5F5E2EFE2F5F5F5F5F5F5F5F5F5F5F5F5F5F5F5F5F5F5F5F5F5E2E2F5F5F5F5F5F5F5F5F5F5F5F5F5F5F5F5E2F5F5F5F5F5F5F5F5F5F5F5F5F5
310
F5F5F5F5F5F5F5F5F5F5F5F5F5F5F5F5F5F5F5F5F5F5F5F5F5F5F5F5F5F5F5F5F5F5F5F5F5F5F5F5F5F5F5F5F5F5F5F5F5F5F5F5F5F5F5F5F5F5F5F5F5F5F5F5F5F5F5F5F5F5F5F5F5F5F5F5F5F5F5F5F5F5E2F5F5F5F5F5F5F5F5F5F5F5F5F5F5F5F5F5F5E2E2F5F5F5F5F5F5F5F5F5F5F5F5F5F5F5F5F5F5F5F5F5E2EFE2
310
F5F5F5F5F5F5F5F5F5F5F5F5F5F5F5F5F5F5F5F5F5E2E2F5F5F5F5F5F5F5F5F5F5F5F5F5F5F5F5E2F5F5F5F5F5F5F5F5F5F5F5F5F5F5F5F5F5F5F5F5F5F5F5F5F5F5F5F5F5F5F5F5F5F5F5F5F5F5F5F5F5F5F5F5F5F5F5F5F5F5F5F5F5F5F5F5F5F5F5F5F5F5F5F5F5F5F5F5F5F5F5F5F5F5F5F5F5F5F5F5F5F5F5F5F5F5F5
310
F5F5F5F5F5F5F5F5E2F5F5F5F5F5F5F5F5F5F5F5F5F5F5F5F5F5F5E2E2F5F5F5F5F5F5F5F5F5F5F5F5F5F5F5F5F5F5F5F5F5E2EFE2F5F5F5F5F5F5F5F5F5F5F5F5F5F5F5F5F5F5F5F5F5E2E2F5F5F5F5F5F5F5F5F5F5F5F5F5F5F5F5E2F5F5F5F5F5F5F5F5F5F5F5F5F5F5F5F5F5F5F5F5F5F5F5F5F5F5F5F5F5F5F5F5F5F5
310
F5F5F5F5F5F5F5F5F5F5F5F5F5F5F5F5F5F5F5F5F5F5F5F5F5F5F5F5F5F5F5F5F5F5F5F5F5F5F5F5F5F5F5F5F5F5F5F5F5F5F5F5F5F5F5F5F5F5F5F5F5E2F5F5F5F5F5F5F5F5F5F5F5F5F5F5F5F5F5F5E2E2F5F5F5F5F5F5F5F5F5F5F5F5F5F5F5F5F5F5F5F5F5E2EFE2F5F5F5F5F5F5F5F5F5F5F5F5F5F5F5F5F5F5F5F5F5
310
E2E2F5F5F5F5F5F5F5F5F5F5F5F5F5F5F5F5E2F5F5F5F5F5F5F5F5F5F5F5F5F5F5F5F5F5F5F5F5F5F5F5F5F5F5F5F5F5F5F5F5F5F5F5F5F5F5F5F5F5F5F5F5F5F5F5F5F5F5F5F5F5F5F5F5F5F5F5F5F5F5F5F5F5F5F5F5F5F5F5F5F5F5F5F5F5F5F5F5F5F5F5F5F5F5F5F5F5F5F5F5F5F5F5E2F5F5F5F5F5F5F5F5F5F5F5F5
310
F5F5F5F5F5F5E2E2F5F5F5F5F5F5F5F5F5F5F5F5F5F5F5F5F5F5F5F5F5E2EFE2F5F5F5F5F5F5F5F5F5F5F5F5F5F5F5F5F5F5F5F5F5E2E2F5F5F5F5F5F5F5F5F5F5F5F5F5F5F5F5E2F5F5F5F5F5F5F5F5F5F5F5F5F5F5F5F5F5F5F5F5F5F5F5F5F5F5F5F5F5F5F5F5F5F5F5F5F5F5F5F5F5F5F5F5F5F5F5F5F5F5F5F5F5F5F5
310
F5F5F5F5F5F5F5F5F5F5F5F5F5F5F5F5F5F5F5F5F5F5F5F5F5F5F5F5F5F5F5F5F5F5F5F5F5F5F5F5E2F5F5F5F5F5F5F5F5F5F5F5F5F5F5F5F5F5F5E2E2F5F5F5F5F5F5F5F5F5F5F5F5F5F5F5F5F5F5F5F5F5E2EFE2F5F5F5F5F5F5F5F5F5F5F5F5F5F5F5F5F5F5F5F5F5E2E2F5F5F5F5F5F5F5F5F5F5F5F5F5F5F5F5E2F5F5
310
F5F5F5F5F5F5F5F5F5F5F5F5F5F5F5F5F5F5F5F5F5F5F5F5F5F5F5F5F5F5F5F5F5F5F5F5F5F5F5F5F5F5F5F5F5F5F5F5F5F5F5F5F5F5F5F5F5F5F5F5F5F5F5F5F5F5F5F5F5F5F5F5F5F5F5F5F5F5F5F5F5F5F5F5F5F5F5F5F5F5F5F5F5E2F5F5F5F5F5F5F5F5F5F5F5F5F5F5F5F5F5F5E2E2F5F5F5F5F5F5F5F5F5F5F5F5F5
310
F5F5F5F5F5F5F5F5E2EFE2F5F5F5F5F5F5F5F5F5F5F5F5F5F5F5F5F5F5F5F5F5E2E2F5F5F5F5F5F5F5F5F5F5F5F5F5F5F5F5E2F5F5F5F5F5F5F5F5F5F5F5F5F5F5F5F5F5F5F5F5F5F5F5F5F5F5F5F5F5F5F5F5F5F5F5F5F5F5F5F5F5F5F5F5F5F5F5F5F5F5F5F5F5F5F5F5F5F5F5F5F5F5F5F5F5F5F5F5F5F5F5F5F5F5F5F5
310
F5F5F5F5F5F5F5F5F5F5F5F5F5F5F5F5F5F5F5E2F5F5F5F5F5F5F5F5F5F5F5F5F5F5F5F5F5F5E2E2F5F5F5F5F5F5F5F5F5F5F5F5F5F5F5F5F5F5F5F5F5E2EFE2F5F5F5F5F5F5F5F5F5F5F5F5F5F5F5F5F5F5F5F5F5E2E2F5F5F5F5F5F5F5F5F5F5F5F5F5F5F5F5E2F5F5F5F5F5F5F5F5F5F5F5F5F5F5F5F5F5F5F5F5F5F5F5
310
F5F5F5F5F5F5F5F5F5F5F5F5F5F5F5F5F5F5F5F5F5F5F5F5F5F5F5F5F5F5F5F5F5F5F5F5F5F5F5F5F5F5F5F5F5F5F5F5F5F5F5F5F5F5F5F5F5F5F5F5F5F5F5F5F5F5F5F5F5F5F5F5E2F5F5F5F5F5F5F5F5F5F5F5F5F5F5F5F5F5F5E2E2F5F5F5F5F5F5F5F5F5F5F5F5F5F5F5F5F5F5F5F5F5E2EFE2F5F5F5F5F5F5F5F5F5F5
310
F5F5F5F5F5F5F5F5F5F5F5E2E2F5F5F5F5F5F5F5F5F5F5F5F5F5F5F5F5E2F5F5F5F5F5F5F5F5F5F5F5F5F5F5F5F5F5F5F5F5F5F5F5F5F5F5F5F5F5F5F5F5F5F5F5F5F5F5F5F5F5F5F5F5F5F5F5F5F5F5F5F5F5F5F5F5F5F5F5F5F5F5F5F5F5F5F5F5F5F5F5F5F5F5F5F5F5F5F5F5F5F5F5F5F5F5F5F5F5F5F5F5F5F5F5E2F5
310
F5F5F5F5F5F5F5F5F5F5F5F5F5F5F5F5F5E2E2F5F5F5F5F5F5F5F5F5F5F5F5F5F5F5F5F5F5F5F5F5E2EFE2F5F5F5F5F5F5F5F5F5F5F5F5F5F5F5F5F5F5F5F5F5E2E2F5F5F5F5F5F5F5F5F5F5F5F5F5F5F5F5E2F5F5F5F5F5F5F5F5F5F5F5F5F5F5F5F5F5F5F5F5F5F5F5F5F5E2E2E2E2E2E2E2E2E2E2E2E2E2E2E2E2E2E2E2
310
E2E2E2E2E2E2E2E2E2E2E2E2E2E2E2E2E2E2E2E2E2E2E2E2E2E2F5F5F5F5F5F5F5F5F5F5F5F5F5F5F5F5F5F5F5F5F5F5F5F5F5E2F5F5F5F5F5F5F5F5F5F5F5F5F5F5F5F5F5F5E2E2F5F5F5F5F5F5F5F5F5F5F5F5F5F5F5F5F5F5F5F5F5E2EFE2F5F5F5F5F5F5F5F5F5F5F5F5F5F5F5F5F5F5F5F5F5E2E2F5F5F5F5F5F5F5F5
310
F5F5F5F5F5F5F5F5E2F5F5F5F5F5F5F5F5F5F5F5F5F5F5F5F5F5F5F5F5F5F5F5F5E2F5F5F5F5F5F5F5F5F5F5F5F5F5F5F5F5F5F5F5F5F5F5F5F5F5F5F5F5F5F5F5F5F5F5F5F5F5F5F5F5F5F5F5F5F5E2F5F5F5F5F5F5F5F5F5F5F5F5F5F5F5F5F5F5F5F5F5F5F5F5E2F5F5F5F5F5F5F5F5F5F5F5F5F5F5F5F5F5F5E2E2F5F5
310
F5F5F5F5F5F5F5F5F5F5F5F5F5F5F5F5F5F5F5E2EFE2F5F5F5F5F5F5F5F5F5F5F5F5F5F5F5F5F5F5F5F5F5E2E2F5F5F5F5F5F5F5F5F5F5F5F5F5F5F5F5E2F5F5F5F5F5F5F5F5F5F5F5F5F5F5F5F5F5F5F5F5F5F5F5E2F5F5F5F5F5F5F5F5F5F5F5F5F5F5F5F5F5F5F5F5F5F5F5F5F5F5F5F5F5F5F5F5F5F5F5F5F5F5F5F5F5
310
F5F5F5F5F5F5E2F5F5F5F5F5F5F5F5F5F5F5F5F5F5F5F5F5F5F5F5F5F5F5E2F5F5F5F5F5F5F5F5F5F5F5F5F5F5F5F5F5F5E2E2F5F5F5F5F5F5F5F5F5F5F5F5F5F5F5F5F5F5F5F5F5E2EFE2F5F5F5F5F5F5F5F5F5F5F5F5F5F5F5F5F5F5F5F5F5E2E2F5F5F5F5F5F5F5F5F5F5F5F5F5F5F5F5E2F5F5F5F5F5F5F5F5F5F5F5F5
310
F5F5F5F5F5F5F5F5F5F5F5E2F5F5F5F5F5F5F5F5F5F5F5F5F5F5F5F5F5F5F5F5F5F5F5F5F5F5F5F5F5F5F5F5F5F5F5F5F5F5F5F5F5F5F5F5F5F5F5E2F5F5F5F5F5F5F5F5F5F5F5F5F5F5F5F5F5F5F5F5F5F5F5E2F5F5F5F5F5F5F5F5F5F5F5F5F5F5F5F5F5F5E2E2F5F5F5F5F5F5F5F5F5F5F5F5F5F5F5F5F5F5F5F5F5E2EF
310
E2F5F5F5F5F5F5F5F5F5F5F5F5F5F5F5F5F5F5F5F5F5E2E2F5F5F5F5F5F5F5F5F5F5F5F5F5F5F5F5E2F5F5F5F5F5F5F5F5F5F5F5F5F5F5F5F5F5F5F5F5F5F5E2F5F5F5F5F5F5F5F5F5F5F5F5F5F5F5F5F5F5F5F5F5F5F5F5F5F5F5F5F5F5F5F5F5F5F5F5F5F5F5F5F5F5F5F5F5F5F5F5E2F5F5F5F5F5F5F5F5F5F5F5F5F5F5
310
F5F5F5F5F5F5F5F5F5E2F5F5F5F5F5F5F5F5F5F5F5F5F5F5F5F5F5F5E2E2F5F5F5F5F5F5F5F5F5F5F5F5F5F5F5F5F5F5F5F5F5E2EFE2F5F5F5F5F5F5F5F5F5F5F5F5F5F5F5F5F5F5F5F5F5E2E2F5F5F5F5F5F5F5F5F5F5F5F5F5F5F5F5E2F5F5F5F5F5F5F5F5F5F5F5F5F5F5F5F5F5F5F5F5F5F5E2F5F5F5F5F5F5F5F5F5F5
310
F5F5F5F5F5F5F5F5F5F5F5F5F5F5F5F5F5F5F5F5F5F5F5F5F5F5F5F5F5F5F5F5F5F5F5F5F5F5E2F5F5F5F5F5F5F5F5F5F5F5F5F5F5F5F5F5F5F5F5F5F5F5E2F5F5F5F5F5F5F5F5F5F5F5F5F5F5F5F5F5F5E2E2F5F5F5F5F5F5F5F5F5F5F5F5F5F5F5F5F5F5F5F5F5E2EFE2F5F5F5F5F5F5F5F5F5F5F5F5F5F5F5F5F5F5F5F5
310
F5E2E2F5F5F5F5F5F5F5F5F5F5F5F5F5F5F5F5E2F5F5F5F5F5F5F5F5F5F5F5F5F5F5F5F5F5F5F5F5F5F5E2F5F5F5F5F5F5F5F5F5F5F5F5F5F5F5F5F5F5F5F5F5F5F5F5F5F5F5F5F5F5F5F5F5F5F5F5F5F5F5F5F5F5F5F5F5F5F5F5E2F5F5F5F5F5F5F5F5F5F5F5F5F5F5F5F5F5F5F5F5F5F5F5E2F5F5F5F5F5F5F5F5F5F5F5
310
F5F5F5F5F5F5F5E2E2F5F5F5F5F5F5F5F5F5F5F5F5F5F5F5F5F5F5F5F5F5E2EFE2F5F5F5F5F5F5F5F5F5F5F5F5F5F5F5F5F5F5F5F5F5E2E2F5F5F5F5F5F5F5F5F5F5F5F5F5F5F5F5E2F5F5F5F5F5F5F5F5F5F5F5F5F5F5F5F5F5F5F5F5F5F5E2F5F5F5F5F5F5F5F5F5F5F5F5F5F5F5F5F5F5F5F5F5F5F5F5F5F5F5F5F5F5F5
310
F5F5F5F5F5F5F5F5F5F5F5F5F5F5F5F5F5E2F5F5F5F5F5F5F5F5F5F5F5F5F5F5F5F5F5F5F5F5F5F5F5E2F5F5F5F5F5F5F5F5F5F5F5F5F5F5F5F5F5F5E2E2F5F5F5F5F5F5F5F5F5F5F5F5F5F5F5F5F5F5F5F5F5E2EFE2F5F5F5F5F5F5F5F5F5F5F5F5F5F5F5F5F5F5F5F5F5E2E2F5F5F5F5F5F5F5F5F5F5F5F5F5F5F5F5E2F5
310
F5F5F5F5F5F5F5F5F5F5F5F5F5F5F5F5F5F5F5F5F5E2F5F5F5F5F5F5F5F5F5F5F5F5F5F5F5F5F5F5F5F5F5F5F5F5F5F5F5F5F5F5F5F5F5F5F5F5F5F5F5F5F5F5F5F5F5F5F5F5E2F5F5F5F5F5F5F5F5F5F5F5F5F5F5F5F5F5F5F5F5F5F5F5E2F5F5F5F5F5F5F5F5F5F5F5F5F5F5F5F5F5F5E2E2F5F5F5F5F5F5F5F5F5F5F5F5
310
F5F5F5F5F5F5F5F5F5E2EFE2F5F5F5F5F5F5F5F5F5F5F5F5F5F5F5F5F5F5F5F5F5E2E2F5F5F5F5F5F5F5F5F5F5F5F5F5F5F5F5E2F5F5F5F5F5F5F5F5F5F5F5F5F5F5F5F5F5F5F5F5F5F5E2F5F5F5F5F5F5F5F5F5F5F5F5F5F5F5F5F5F5F5F5F5F5F5F5F5F5F5F5F5F5F5F5F5F5F5F5F5F5F5F5F5F5F5F5F5F5F5F5E2F5F5F5
310
F5F5F5F5F5F5F5F5F5F5F5F5F5F5F5F5F5F5F5F5E2F5F5F5F5F5F5F5F5F5F5F5F5F5F5F5F5F5F5E2E2F5F5F5F5F5F5F5F5F5F5F5F5F5F5F5F5F5F5F5F5F5E2EFE2F5F5F5F5F5F5F5F5F5F5F5F5F5F5F5F5F5F5F5F5F5E2E2F5F5F5F5F5F5F5F5F5F5F5F5F5F5F5F5E2F5F5F5F5F5F5F5F5F5F5F5F5F5F5F5F5F5F5F5F5F5F5
310
E2F5F5F5F5F5F5F5F5F5F5F5F5F5F5F5F5F5F5F5F5F5F5F5F5F5F5F5F5F5F5F5F5F5F5F5F5F5F5F5F5F5F5F5F5F5F5F5F5E2F5F5F5F5F5F5F5F5F5F5F5F5F5F5F5F5F5F5F5F5F5F5F5E2F5F5F5F5F5F5F5F5F5F5F5F5F5F5F5F5F5F5E2E2F5F5F5F5F5F5F5F5F5F5F5F5F5F5F5F5F5F5F5F5F5E2EFE2F5F5F5F5F5F5F5F5F5
310
F5F5F5F5F5F5F5F5F5F5F5F5E2E2F5F5F5F5F5F5F5F5F5F5F5F5F5F5F5F5E2F5F5F5F5F5F5F5F5F5F5F5F5F5F5F5F5F5F5F5F5F5F5E2F5F5F5F5F5F5F5F5F5F5F5F5F5F5F5F5F5F5F5F5F5F5F5F5F5F5F5F5F5F5F5F5F5F5F5F5F5F5F5F5F5F5F5F5F5F5F5F5E2F5F5F5F5F5F5F5F5F5F5F5F5F5F5F5F5F5F5F5F5F5F5F5E2
310
F5F5F5F5F5F5F5F5F5F5F5F5F5F5F5F5F5F5E2E2F5F5F5F5F5F5F5F5F5F5F5F5F5F5F5F5F5F5F5F5F5E2EFE2F5F5F5F5F5F5F5F5F5F5F5F5F5F5F5F5F5F5F5F5F5E2E2F5F5F5F5F5F5F5F5F5F5F5F5F5F5F5F5E2F5F5F5F5F5F5F5F5F5F5F5F5F5F5F5F5F5F5F5F5F5F5E2F5F5F5F5F5F5F5F5F5F5F5F5F5F5F5F5F5F5F5F5
310
F5F5F5F5F5F5F5F5F5F5F5F5F5F5F5F5F5F5F5F5F5F5F5F5F5F5F5F5E2F5F5F5F5F5F5F5F5F5F5F5F5F5F5F5F5F5F5F5F5F5F5F5E2F5F5F5F5F5F5F5F5F5F5F5F5F5F5F5F5F5F5E2E2F5F5F5F5F5F5F5F5F5F5F5F5F5F5F5F5F5F5F5F5F5E2EFE2F5F5F5F5F5F5F5F5F5F5F5F5F5F5F5F5F5F5F5F5F5E2E2F5F5F5F5F5F5F5
310
F5F5F5F5F5F5F5F5F5E2F5F5F5F5F5F5F5F5F5F5F5F5F5F5F5F5F5F5F5F5F5F5E2F5F5F5F5F5F5F5F5F5F5F5F5F5F5F5F5F5F5F5F5F5F5F5F5F5F5F5F5F5F5F5F5F5F5F5F5F5F5F5F5F5F5F5F5F5F5F5F5E2F5F5F5F5F5F5F5F5F5F5F5F5F5F5F5F5F5F5F5F5F5F5F5E2F5F5F5F5F5F5F5F5F5F5F5F5F5F5F5F5F5F5E2E2F5
310
F5F5F5F5F5F5F5F5F5F5F5F5F5F5F5F5F5F5F5F5E2EFE2F5F5F5F5F5F5F5F5F5F5F5F5F5F5F5F5F5F5F5F5F5E2E2F5F5F5F5F5F5F5F5F5F5F5F5F5F5F5F5E2F5F5F5F5F5F5F5F5F5F5F5F5F5F5F5F5F5F5F5F5F5F5E2F5F5F5F5F5F5F5F5F5F5F5F5F5F5F5F5F5F5F5F5F5F5F5F5F5F5F5F5F5F5F5F5F5F5F5F5F5F5F5F5F5
310
F5F5F5F5F5F5F5E2F5F5F5F5F5F5F5F5F5F5F5F5F5F5F5F5F5F5F5F5F5F5F5E2F5F5F5F5F5F5F5F5F5F5F5F5F5F5F5F5F5F5E2E2F5F5F5F5F5F5F5F5F5F5F5F5F5F5F5F5F5F5F5F5F5E2EFE2F5F5F5F5F5F5F5F5F5F5F5F5F5F5F5F5F5F5F5F5F5E2E2F5F5F5F5F5F5F5F5F5F5F5F5F5F5F5F5E2F5F5F5F5F5F5F5F5F5F5F5
310
F5F5F5F5F5F5F5F5F5F5F5E2F5F5F5F5F5F5F5F5F5F5F5F5F5F5F5F5F5F5F5F5F5F5F5F5F5F5F5F5F5F5F5F5F5F5F5F5F5F5F5F5F5F5F5F5F5F5F5F5E2F5F5F5F5F5F5F5F5F5F5F5F5F5F5F5F5F5F5F5F5F5F5F5E2F5F5F5F5F5F5F5F5F5F5F5F5F5F5F5F5F5F5E2E2F5F5F5F5F5F5F5F5F5F5F5F5F5F5F5F5F5F5F5F5F5E2
310
EFE2F5F5F5F5F5F5F5F5F5F5F5F5F5F5F5F5F5F5F5F5F5E2E2F5F5F5F5F5F5F5F5F5F5F5F5F5F5F5F5E2F5F5F5F5F5F5F5F5F5F5F5F5F5F5F5F5F5F5F5F5F5F5E2F5F5F5F5F5F5F5F5F5F5F5F5F5F5F5F5F5F5F5F5F5F5F5F5F5F5F5F5F5F5F5F5F5F5F5F5F5F5F5F5F5F5F5F5F5F5F5F5E2F5F5F5F5F5F5F5F5F5F5F5F5F5
310
F5F5F5F5F5F5F5F5F5F5E2F5F5F5F5F5F5F5F5F5F5F5F5F5F5F5F5F5F5E2E2F5F5F5F5F5F5F5F5F5F5F5F5F5F5F5F5F5F5F5F5F5E2EFE2F5F5F5F5F5F5F5F5F5F5F5F5F5F5F5F5F5F5F5F5F5E2E2F5F5F5F5F5F5F5F5F5F5F5F5F5F5F5F5E2F5F5F5F5F5F5F5F5F5F5F5F5F5F5F5F5F5F5F5F5F5F5E2F5F5F5F5F5F5F5F5F5
310
F5F5F5F5F5F5F5F5F5F5F5F5F5F5F5F5F5F5F5F5F5F5F5F5F5F5F5F5F5F5F5F5F5F5F5F5F5F5F5E2F5F5F5F5F5F5F5F5F5F5F5F5F5F5F5F5F5F5F5F5F5F5F5E2F5F5F5F5F5F5F5F5F5F5F5F5F5F5F5F5F5F5E2E2F5F5F5F5F5F5F5F5F5F5F5F5F5F5F5F5F5F5F5F5F5E2EFE2F5F5F5F5F5F5F5F5F5F5F5F5F5F5F5F5F5F5F5
310
F5F5E2E2F5F5F5F5F5F5F5F5F5F5F5F5F5F5F5F5E2F5F5F5F5F5F5F5F5F5F5F5F5F5F5F5F5F5F5F5F5F5F5E2F5F5F5F5F5F5F5F5F5F5F5F5F5F5F5F5F5F5F5F5F5F5F5F5E2F5F5F5F5F5F5F5F5F5F5F5F5F5F5F5F5F5F5F5F5F5F5F5E2F5F5F5F5F5F5F5F5F5F5F5F5F5F5F5F5F5F5F5F5F5F5F5E2F5F5F5F5F5F5F5F5F5F5
310
F5F5F5F5F5F5F5F5E2E2F5F5F5F5F5F5F5F5F5F5F5F5F5F5F5F5F5F5F5F5F5E2EFE2F5F5F5F5F5F5F5F5F5F5F5F5F5F5F5F5F5F5F5F5F5E2E2F5F5F5F5F5F5F5F5F5F5F5F5F5F5F5F5E2F5F5F5F5F5F5F5F5F5F5F5F5F5F5F5F5F5F5F5F5F5F5E2F5F5F5F5F5F5F5F5F5F5F5F5F5F5F5F5F5F5F5F5F5F5F5F5E2F5F5F5F5F5
310
F5F5F5F5F5F5F5F5F5F5F5F5F5F5F5F5F5F5E2F5F5F5F5F5F5F5F5F5F5F5F5F5F5F5F5F5F5F5F5F5F5F5E2F5F5F5F5F5F5F5F5F5F5F5F5F5F5F5F5F5F5E2E2F5F5F5F5F5F5F5F5F5F5F5F5F5F5F5F5F5F5F5F5F5E2EFE2F5F5F5F5F5F5F5F5F5F5F5F5F5F5F5F5F5F5F5F5F5E2E2F5F5F5F5F5F5F5F5F5F5F5F5F5F5F5F5E2
310
F5F5F5F5F5F5F5F5F5F5F5F5F5F5F5F5F5F5F5F5F5F5E2F5F5F5F5F5F5F5F5F5F5F5F5F5F5F5F5F5F5F5F5F5F5F5F5E2F5F5F5F5F5F5F5F5F5F5F5F5F5F5F5F5F5F5F5F5F5F5F5E2F5F5F5F5F5F5F5F5F5F5F5F5F5F5F5F5F5F5F5F5F5F5F5E2F5F5F5F5F5F5F5F5F5F5F5F5F5F5F5F5F5F5E2E2F5F5F5F5F5F5F5F5F5F5F5
310
F5F5F5F5F5F5F5F5F5F5E2EFE2F5F5F5F5F5F5F5F5F5F5F5F5F5F5F5F5F5F5F5F5F5E2E2F5F5F5F5F5F5F5F5F5F5F5F5F5F5F5F5E2F5F5F5F5F5F5F5F5F5F5F5F5F5F5F5F5F5F5F5F5F5F5E2F5F5F5F5F5F5F5F5F5F5F5F5F5F5F5F5F5F5F5F5F5F5F5F5E2F5F5F5F5F5F5F5F5F5F5F5F5F5F5F5F5F5F5F5F5F5F5F5E2F5F5
310
F5F5F5F5F5F5F5F5F5F5F5F5F5F5F5F5F5F5F5F5F5E2F5F5F5F5F5F5F5F5F5F5F5F5F5F5F5F5F5F5E2E2F5F5F5F5F5F5F5F5F5F5F5F5F5F5F5F5F5F5F5F5F5E2EFE2F5F5F5F5F5F5F5F5F5F5F5F5F5F5F5F5F5F5F5F5F5E2E2F5F5F5F5F5F5F5F5F5F5F5F5F5F5F5F5E2F5F5F5F5F5F5F5F5F5F5F5F5F5F5F5F5F5F5F5F5F5
310
F5E2F5F5F5F5F5F5F5F5F5F5F5F5F5F5F5F5F5F5F5F5F5F5E2E2E2E2F5F5F5F5F5F5F5F5F5F5F5F5F5F5F5F5F5F5F5F5F5F5E2F5F5F5F5F5F5F5F5F5F5F5F5F5F5F5F5F5F5F5F5F5F5F5E2F5F5F5F5F5F5F5F5F5F5F5F5F5F5F5F5F5F5E2E2F5F5F5F5F5F5F5F5F5F5F5F5F5F5F5F5F5F5F5F5F5E2EFE2F5F5F5F5F5F5F5F5
310
F5F5F5F5F5F5F5F5F5F5F5F5F5E2E2F5F5F5F5F5F5F5F5F5F5F5F5F5F5F5F5E2F5F5F5F5F5F5F5F5F5F5F5F5F5F5F5F5F5F5F5F5F5F5E2F5F5F5F5F5F5F5F5F5F5F5F5F5F5F5F5F5F5F5F5F5F5E2F5E2F5E2F5F5F5F5F5F5F5F5F5F5F5F5F5F5F5F5F5F5F5F5F5E2F5F5F5F5F5F5F5F5F5F5F5F5F5F5F5F5F5F5F5F5F5F5F5
310
E2F5F5F5F5F5F5F5F5F5F5F5F5F5F5F5F5F5F5E2E2F5F5F5F5F5F5F5F5F5F5F5F5F5F5F5F5F5F5F5F5F5E2EFE2F5F5F5F5F5F5F5F5F5F5F5F5F5F5F5F5F5F5F5F5F5E2E2F5F5F5F5F5F5F5F5F5F5F5F5F5F5F5F5E2F5F5F5F5F5F5F5F5F5F5F5F5F5F5F5F5F5F5F5F5F5F5E2F5F5F5F5F5F5F5F5F5F5F5F5F5F5F5F5F5F5E2
310
E2E2E2E2E2E2E2E2E2E2E2F5F5F5F5F5F5F5F5F5F5F5F5F5F5F5F5F5F5E2F5F5F5F5F5F5F5F5F5F5F5F5F5F5F5F5F5F5F5F5F5F5F5E2F5F5F5F5F5F5F5F5F5F5F5F5F5F5F5F5F5F5E2E2F5F5F5F5F5F5F5F5F5F5F5F5F5F5F5F5F5F5F5F5F5E2EFE2F5F5F5F5F5F5F5F5F5F5F5F5F5F5F5F5F5F5F5F5F5E2E2F5F5F5F5F5F5
310
F5F5F5F5F5F5F5F5F5F5E2F5F5F5F5F5F5F5F5F5F5F5F5F5F5F5F5F5F5F5F5F5F5E2F5F5F5F5F5F5F5F5F5F5F5F5F5F5F5F5F5F5F5F5F5F5E2F5E2F5E2F5F5F5F5F5F5F5F5F5F5F5F5F5F5F5F5F5F5F5F5F5E2F5F5F5F5F5F5F5F5F5F5F5F5F5F5F5F5F5F5F5F5F5F5F5E2F5F5F5F5F5F5F5F5F5F5F5F5F5F5F5F5F5F5E2E2
310
F5F5F5F5F5F5F5F5F5F5F5F5F5F5F5F5F5F5F5F5F5E2EFE2F5F5F5F5F5F5F5F5F5F5F5F5F5F5F5F5F5F5F5F5F5E2E2F5F5F5F5F5F5F5F5F5F5F5F5F5F5F5F5E2F5F5F5F5F5F5F5F5F5F5F5F5F5F5F5F5F5F5F5F5F5F5E2F5F5F5F5F5F5F5F5F5F5F5F5F5F5F5F5F5F5F5F5F5F5E2E2E2E2F5F5F5F5F5F5F5F5F5F5F5F5F5F5
310
F5F5F5F5F5F5F5F5E2F5F5F5F5F5F5F5F5F5F5F5F5F5F5F5F5F5F5F5F5F5F5F5E2F5F5F5F5F5F5F5F5F5F5F5F5F5F5F5F5F5F5E2E2F5F5F5F5F5F5F5F5F5F5F5F5F5F5F5F5F5F5F5F5F5E2EFE2F5F5F5F5F5F5F5F5F5F5F5F5F5F5F5F5F5F5F5F5F5E2E2F5F5F5F5F5F5F5F5F5F5F5F5F5F5F5F5E2F5F5F5F5F5F5F5F5F5F5
310
F5F5F5F5F5F5F5F5F5F5F5F5E2F5F5F5F5F5F5F5F5F5F5F5F5F5F5F5F5F5F5F5F5F5F5F5F5E2F5F5F5F5F5F5F5F5F5F5F5F5F5F5F5F5F5F5F5F5F5F5F5E2F5F5F5F5F5F5F5F5F5F5F5F5F5F5F5F5F5F5F5F5F5F5F5E2F5F5F5F5F5F5F5F5F5F5F5F5F5F5F5F5F5F5E2E2F5F5F5F5F5F5F5F5F5F5F5F5F5F5F5F5F5F5F5F5F5
310
E2EFE2F5F5F5F5F5F5F5F5F5F5F5F5F5F5F5F5F5F5F5F5F5E2E2F5F5F5F5F5F5F5F5F5F5F5F5F5F5F5F5E2F5F5F5F5F5F5F5F5F5F5F5F5F5F5F5F5F5F5F5F5F5F5E2F5F5F5F5F5F5F5F5F5F5F5F5F5F5F5F5F5F5F5F5F5F5F5F5E2F5F5F5F5F5F5F5F5F5F5F5F5F5F5F5F5F5F5F5F5F5F5F5E2F5F5F5F5F5F5F5F5F5F5F5F5
310
F5F5F5F5F5F5F5F5F5F5F5E2F5F5F5F5F5F5F5F5F5F5F5F5F5F5F5F5F5F5E2E2F5F5F5F5F5F5F5F5F5F5F5F5F5F5F5F5F5F5F5F5F5E2EFE2F5F5F5F5F5F5F5F5F5F5F5F5F5F5F5F5F5F5F5F5F5E2E2F5F5F5F5F5F5F5F5F5F5F5F5F5F5F5F5E2F5F5F5F5F5F5F5F5F5F5F5F5F5F5F5F5F5F5F5F5F5F5E2F5F5F5F5F5F5F5F5
310
F5F5F5F5F5F5F5F5F5F5F5F5F5F5F5F5E2F5F5F5F5F5F5F5F5F5F5F5F5F5F5F5F5F5F5F5F5F5F5F5E2F5F5F5F5F5F5F5F5F5F5F5F5F5F5F5F5F5F5F5F5F5F5F5E2F5F5F5F5F5F5F5F5F5F5F5F5F5F5F5F5F5F5E2E2F5F5F5F5F5F5F5F5F5F5F5F5F5F5F5F5F5F5F5F5F5E2EFE2F5F5F5F5F5F5F5F5F5F5F5F5F5F5F5F5F5F5
310
F5F5F5E2E2F5F5F5F5F5F5F5F5F5F5F5F5F5F5F5F5E2F5F5F5F5F5F5F5F5F5F5F5F5F5F5F5F5F5F5F5F5F5F5E2F5F5F5F5F5F5F5F5F5F5F5F5F5F5F5F5F5F5F5F5F5F5F5F5E2F5F5F5F5F5F5F5F5F5F5F5F5F5F5F5F5F5F5F5F5F5F5F5E2F5F5F5F5F5F5F5F5F5F5F5F5F5F5F5F5F5F5F5F5F5F5F5E2F5F5F5F5F5F5F5F5F5
310
F5F5F5F5F5F5F5F5F5E2E2F5F5F5F5F5F5F5F5F5F5F5F5F5F5F5F5F5F5F5F5F5E2EFE2F5F5F5F5F5F5F5F5F5F5F5F5F5F5F5F5F5F5F5F5F5E2E2F5F5F5F5F5F5F5F5F5F5F5F5F5F5F5F5E2F5F5F5F5F5F5F5F5F5F5F5F5F5F5F5F5F5F5F5F5F5F5E2F5F5F5F5F5F5F5F5F5F5F5F5F5F5F5F5F5F5F5F5F5F5F5F5F5F5F5F5F5
310
F5F5F5F5F5F5F5F5F5F5F5F5F5F5F5F5F5F5F5E2F5F5F5F5F5F5F5F5F5F5F5F5F5F5F5F5F5F5F5F5F5F5F5E2F5F5F5F5F5F5F5F5F5F5F5F5F5F5F5F5F5F5E2E2F5F5F5F5F5F5F5F5F5F5F5F5F5F5F5F5F5F5F5F5F5E2EFE2F5F5F5F5F5F5F5F5F5F5F5F5F5F5F5F5F5F5F5F5F5E2E2F5F5F5F5F5F5F5F5F5F5F5F5F5F5F5F5
310
E2F5F5F5F5F5F5F5F5F5F5F5F5F5F5F5F5F5F5F5F5F5F5E2F5F5F5F5F5F5F5F5F5F5F5F5F5F5F5F5F5F5F5F5F5F5F5F5F5F5F5F5F5E2E2E2E2E2E2E2E2E2E2E2F5F5F5F5F5F5F5F5E2F5F5F5F5F5F5F5F5F5F5F5F5F5F5F5F5F5F5F5F5F5F5F5E2F5F5F5F5F5F5F5F5F5F5F5F5F5F5F5F5F5F5E2E2F5F5F5F5F5F5F5F5F5F5
310
F5F5F5F5F5F5F5F5F5F5F5E2EFE2F5F5F5F5F5F5F5F5F5F5F5F5F5F5F5F5F5F5F5F5F5E2E2F5F5F5F5F5F5F5F5F5F5F5F5F5F5F5F5E2F5F5F5F5F5F5F5F5F5F5F5F5F5F5F5F5F5F5F5F5F5F5E2F5F5F5F5F5F5F5F5F5F5F5F5F5F5F5F5F5F5F5F5F5F5F5F5F5F5F5E2E2F5F5F5F5F5F5F5F5F5F5F5F5F5F5F5F5F5F5F5E2F5
310
F5F5F5F5F5F5F5F5F5F5F5F5F5F5F5F5F5F5F5F5F5F5E2F5F5F5F5F5F5F5F5F5F5F5F5F5F5F5F5F5F5E2E2F5F5F5F5F5F5F5F5F5F5F5F5F5F5F5F5F5F5F5F5F5E2EFE2F5F5F5F5F5F5F5F5F5F5F5F5F5F5F5F5F5F5F5F5F5E2E2F5F5F5F5F5F5F5F5F5F5F5F5F5F5F5F5E2F5F5F5F5F5F5F5F5F5F5F5F5F5F5F5F5F5F5F5F5
310
F5F5F5E2F5F5F5F5F5F5F5F5F5F5F5F5F5F5F5F5F5F5F5F5F5F5F5F5E2E2F5F5F5F5F5F5F5F5F5F5F5F5F5F5F5F5F5F5F5F5F5E2F5F5F5F5F5F5F5F5F5F5F5F5F5F5F5F5F5F5F5F5F5F5F5E2F5F5F5F5F5F5F5F5F5F5F5F5F5F5F5F5F5F5E2E2F5F5F5F5F5F5F5F5F5F5F5F5F5F5F5F5F5F5F5F5F5E2EFE2F5F5F5F5F5F5F5
310
F5F5F5F5F5F5F5F5F5F5F5F5F5F5E2E2F5F5F5F5F5F5F5F5F5F5F5F5F5F5F5F5E2F5F5F5F5F5F5F5F5F5F5F5F5F5F5F5F5F5F5F5F5F5F5F5E2F5F5F5F5F5F5F5F5F5F5F5F5F5F5F5F5F5F5F5F5F5F5E2E2F5F5F5F5F5F5F5F5F5F5F5F5F5F5F5F5F5F5F5F5F5F5F5E2F5F5F5F5F5F5F5F5F5F5F5F5F5F5F5F5F5F5F5F5F5F5
310
F5E2F5F5F5F5F5F5F5F5F5F5F5F5F5F5F5F5F5F5E2E2F5F5F5F5F5F5F5F5F5F5F5F5F5F5F5F5F5F5F5F5F5E2EFE2F5F5F5F5F5F5F5F5F5F5F5F5F5F5F5F5F5F5F5F5F5E2E2F5F5F5F5F5F5F5F5F5F5F5F5F5F5F5F5E2F5F5F5F5F5F5F5F5F5F5F5F5F5F5F5F5F5F5F5F5F5F5F5F5E2F5F5F5F5F5F5F5F5F5F5F5F5F5F5F5F5
310
F5F5F5E2E2F5F5F5F5F5F5F5F5F5F5F5F5F5F5F5F5F5F5F5F5F5F5F5F5E2F5F5F5F5F5F5F5F5F5F5F5F5F5F5F5F5F5F5F5F5F5F5F5F5E2F5F5F5F5F5F5F5F5F5F5F5F5F5F5F5F5F5F5E2E2F5F5F5F5F5F5F5F5F5F5F5F5F5F5F5F5F5F5F5F5F5E2EFE2F5F5F5F5F5F5F5F5F5F5F5F5F5F5F5F5F5F5F5F5F5E2E2F5F5F5F5F5
310
F5F5F5F5F5F5F5F5F5F5F5E2F5F5F5F5F5F5F5F5F5F5F5F5F5F5F5F5F5F5F5F5F5F5F5F5F5E2E2E2E2E2E2E2E2E2E2E2E2E2E2E2E2E2E2E2E2E2E2E2E2E2E2E2E2E2E2E2E2E2E2E2E2E2E2E2E2E2E2E2E2E2F5F5F5F5F5F5F5F5F5F5F5F5F5F5F5F5F5F5F5F5F5F5F5F5F5E2F5F5F5F5F5F5F5F5F5F5F5F5F5F5F5F5F5F5E2
310
E2F5F5F5F5F5F5F5F5F5F5F5F5F5F5F5F5F5F5F5F5F5E2EFE2F5F5F5F5F5F5F5F5F5F5F5F5F5F5F5F5F5F5F5F5F5E2E2F5F5F5F5F5F5F5F5F5F5F5F5F5F5F5F5E2F5F5F5F5F5F5F5F5F5F5F5F5F5F5F5F5F5F5F5F5F5F5F5F5F5F5F5F5F5F5F5F5F5F5F5F5F5F5F5F5F5F5F5F5F5F5F5F5F5F5F5F5F5F5F5F5F5F5F5F5F5F5
310
F5F5F5F5F5F5F5F5F5F5F5F5F5F5F5F5F5F5F5F5F5F5F5F5F5F5F5F5F5F5F5F5F5E2F5F5F5F5F5F5F5F5F5F5F5F5F5F5F5F5F5F5E2E2F5F5F5F5F5F5F5F5F5F5F5F5F5F5F5F5F5F5F5F5F5E2EFE2F5F5F5F5F5F5F5F5F5F5F5F5F5F5F5F5F5F5F5F5F5E2E2F5F5F5F5F5F5F5F5F5F5F5F5F5F5F5F5E2F5F5F5F5F5F5F5F5F5
310
F5F5F5F5F5F5F5F5F5F5F5F5F5F5F5F5F5F5F5F5F5F5F5F5F5F5F5F5F5F5F5F5F5F5F5F5F5F5F5F5F5F5F5F5F5F5F5F5F5F5F5F5F5F5F5F5F5F5F5F5F5F5F5F5F5F5F5F5F5F5F5F5F5F5F5F5F5F5F5F5F5F5F5F5F5F5E2F5F5F5F5F5F5F5F5F5F5F5F5F5F5F5F5F5F5E2E2F5F5F5F5F5F5F5F5F5F5F5F5F5F5F5F5F5F5F5F5
310
F5E2EFE2F5F5F5F5F5F5F5F5F5F5F5F5F5F5F5F5F5F5F5F5F5E2E2F5F5F5F5F5F5F5F5F5F5F5F5F5F5F5F5E2F5F5F5F5F5F5F5F5F5F5F5F5F5F5F5F5F5F5F5F5F5F5F5F5F5F5F5F5F5F5F5F5F5F5F5F5F5F5F5F5F5F5F5F5F5F5F5F5F5F5F5F5F5F5F5F5F5F5F5F5F5F5F5F5F5F5F5F5F5F5F5F5F5F5F5F5F5F5F5F5F5F5F5
310
F5F5F5F5F5F5F5F5F5F5F5F5E2F5F5F5F5F5F5F5F5F5F5F5F5F5F5F5F5F5F5E2E2F5F5F5F5F5F5F5F5F5F5F5F5F5F5F5F5F5F5F5F5F5E2EFE2F5F5F5F5F5F5F5F5F5F5F5F5F5F5F5F5F5F5F5F5F5E2E2F5F5F5F5F5F5F5F5F5F5F5F5F5F5F5F5E2F5F5F5F5F5F5F5F5F5F5F5F5F5F5F5F5F5F5F5F5F5F5F5F5F5F5F5F5F5F5
310
F5F5F5F5F5F5F5F5F5F5F5F5F5F5F5F5F5F5F5F5F5F5F5F5F5F5F5F5F5F5F5F5F5F5F5F5F5F5F5F5F5F5F5F5F5F5F5F5F5F5F5F5F5F5F5F5F5F5F5F5F5F5F5F5F5E2F5F5F5F5F5F5F5F5F5F5F5F5F5F5F5F5F5F5E2E2F5F5F5F5F5F5F5F5F5F5F5F5F5F5F5F5F5F5F5F5F5E2EFE2F5F5F5F5F5F5F5F5F5F5F5F5F5F5F5F5F5
310
F5F5F5F5E2E2F5F5F5F5F5F5F5F5F5F5F5F5F5F5F5F5E2F5F5F5F5F5F5F5F5F5F5F5F5F5F5F5F5F5F5F5F5F5F5F5F5F5F5F5F5F5F5F5F5F5F5F5F5F5F5F5F5F5F5F5F5F5F5F5F5F5F5F5F5F5F5F5F5F5F5F5F5F5F5F5F5F5F5F5F5F5F5F5F5F5F5F5F5F5F5F5F5F5F5F5F5F5F5F5F5F5F5F5F5F5F5F5E2F5F5F5F5F5F5F5F5
310
F5F5F5F5F5F5F5F5F5F5E2E2F5F5F5F5F5F5F5F5F5F5F5F5F5F5F5F5F5F5F5F5F5E2EFE2F5F5F5F5F5F5F5F5F5F5F5F5F5F5F5F5F5F5F5F5F5E2E2F5F5F5F5F5F5F5F5F5F5F5F5F5F5F5F5E2F5F5F5F5F5F5F5F5F5F5F5F5F5F5F5F5F5F5F5F5F5F5F5F5F5F5F5F5F5F5F5F5F5F5F5F5F5F5F5F5F5F5F5F5F5F5F5F5F5F5F5
310
F5F5F5F5F5F5F5F5F5F5F5F5F5F5F5F5F5F5F5F5F5F5F5F5F5F5F5F5F5F5F5F5F5F5F5F5F5F5F5F5F5F5F5F5E2E2F5F5F5F5F5F5F5F5F5F5F5F5F5F5F5F5F5E2E2F5F5F5F5F5F5F5F5F5F5F5F5F5F5F5F5F5F5F5F5F5E2EFE2F5F5F5F5F5F5F5F5F5F5F5F5F5F5F5F5F5F5F5F5F5E2E2F5F5F5F5F5F5F5F5F5F5F5F5F5F5F5
310
F5E2F5F5F5F5F5F5F5F5F5F5F5F5F5F5F5F5F5F5F5F5F5F5F5F5F5F5F5F5F5F5F5F5F5F5F5F5F5F5F5F5F5F5F5F5F5F5F5F5F5F5F5F5F5F5F5F5F5F5F5F5F5F5F5F5F5F5F5F5F5F5F5F5F5F5F5F5F5F5F5F5F5F5F5F5F5F5F5F5F5F5F5F5F5F5F5E2F5E2E2F5F5F5F5E2E2E2F5F5F5F5F5F5F5F5E2E2F5F5F5F5F5F5F5F5F5
310
F5F5F5F5F5F5F5F5F5F5F5F5E2EFE2F5F5F5F5F5F5F5F5F5F5F5F5F5F5F5F5F5F5F5F5F5E2E2F5F5F5F5F5F5F5F5F5F5F5F5F5F5F5F5E2F5F5F5F5F5F5F5F5F5F5F5F5F5F5F5F5F5F5F5F5F5F5F5F5F5F5F5F5F5F5F5F5F5F5F5F5F5F5F5F5F5F5F5F5F5F5F5F5F5F5F5F5F5F5F5F5F5F5F5F5F5F5F5F5F5F5F5F5F5F5F5F5
310
F5F5F5F5F5F5F5F5F5F5F5F5F5F5F5F5F5F5F5F5F5F5F5E2F5F5F5E2E2E2E2E2E2E2E2E2F5F5F5F5F5F5E2E2F5F5F5F5F5F5F5F5F5F5F5F5F5F5F5F5F5F5F5F5F5E2EFE2F5F5F5F5F5F5F5F5F5F5F5F5F5F5F5F5F5F5F5F5F5E2E2F5F5F5F5F5F5F5F5F5F5F5F5F5F5F5F5E2F5F5F5F5F5F5F5F5F5F5F5F5F5F5F5F5F5F5F5
310
F5F5F5F5F5F5F5F5F5F5F5F5F5F5F5F5F5F5F5F5F5F5F5F5F5F5F5F5F5F5F5F5F5F5F5F5F5F5F5F5F5F5F5F5F5F5F5F5F5F5F5F5F5F5F5F5F5F5F5F5F5F5F5F5F5F5F5F5F5F5F5F5F5F5F5F5E2F5F5F5F5F5F5F5F5F5F5F5F5F5F5F5F5F5F5E2E2F5F5F5F5F5F5F5F5F5F5F5F5F5F5F5F5F5F5F5F5F5E2EFE2F5F5F5F5F5F5
310
F5F5F5F5F5F5F5F5F5F5F5F5F5F5F5E2E2F5F5F5F5F5F5F5F5F5F5F5F5F5F5F5F5E2F5F5F5F5F5F5F5F5F5F5F5F5F5F5F5F5F5F5F5F5F5F5E2E2E2E2E2E2E2E2E2E2E2E2E2E2E2E2E2E2E2E2E2E2E2E2E2E2E2E2E2E2E2E2E2E2E2E2E2E2E2E2E2E2E2E2E2E2E2E2E2E2E2F5F5F5F5F5F5F5F5F5F5F5F5F5F5F5F5F5F5F5F5
310
F5F5E2F5F5F5F5F5F5F5F5F5F5F5F5F5F5F5F5F5F5E2E2F5F5F5F5F5F5F5F5F5F5F5F5F5F5F5F5F5F5F5F5F5E2EFE2F5F5F5F5F5F5F5F5F5F5F5F5F5F5F5F5F5F5F5F5F5E2E2F5F5F5F5F5F5F5F5F5F5F5F5F5F5F5F5E2F5F5F5F5F5F5F5F5F5F5F5F5F5F5F5F5F5F5F5E2E2E2F5F5F5F5F5F5F5F5F5F5F5F5F5F5F5F5F5F5
310
F5F5F5E2F5F5F5F5F5F5F5F5F5F5F5F5F5F5F5F5F5F5F5F5F5F5F5F5F5F5F5F5F5E2E2F5F5F5F5F5F5F5F5F5F5F5F5F5F5F5F5F5F5F5F5E2F5F5F5F5F5F5F5F5F5F5F5F5F5F5F5F5F5F5E2E2F5F5F5F5F5F5F5F5F5F5F5F5F5F5F5F5F5F5F5F5F5E2EFE2F5F5F5F5F5F5F5F5F5F5F5F5F5F5F5F5F5F5F5F5F5E2E2F5F5F5F5
310
F5F5F5F5F5F5F5F5F5F5F5F5E2F5F5F5F5F5F5F5F5F5F5F5F5F5F5F5F5F5F5F5E2F5F5F5F5F5F5F5F5F5F5F5F5F5F5F5F5F5F5F5F5F5F5F5F5E2E2F5F5F5F5F5F5F5F5F5F5F5F5F5F5F5F5F5F5F5F5F5F5F5F5F5F5F5F5F5E2F5F5F5F5F5F5F5F5F5F5F5F5F5F5F5F5F5F5F5E2F5F5F5F5F5F5F5F5F5F5F5F5F5F5F5F5F5F5
310
E2E2F5F5F5F5F5F5F5F5F5F5F5F5F5F5F5F5F5F5F5F5F5E2EFE2F5F5F5F5F5F5F5F5F5F5F5F5F5F5F5F5F5F5F5F5F5E2E2F5F5F5F5F5F5F5F5F5F5F5F5F5F5F5F5E2F5F5F5F5F5F5F5F5F5F5F5F5F5F5F5F5F5F5E2F5F5F5F5F5F5F5F5F5F5F5F5F5F5F5F5F5F5F5F5F5F5F5F5F5F5F5E2E2F5F5F5F5F5F5F5F5F5F5F5F5F5
310
F5F5F5F5F5F5F5F5F5F5F5F5F5F5E2F5F5F5F5F5F5F5F5F5F5F5F5F5F5F5F5F5F5F5E2F5F5F5F5F5F5F5F5F5F5F5F5F5F5F5F5F5F5E2E2F5F5F5F5F5F5F5F5F5F5F5F5F5F5F5F5F5F5F5F5F5E2EFE2F5F5F5F5F5F5F5F5F5F5F5F5F5F5F5F5F5F5F5F5F5E2E2F5F5F5F5F5F5F5F5F5F5F5F5F5F5F5F5E2F5F5F5F5F5F5F5F5
310
F5F5F5F5F5F5F5F5F5F5E2F5F5F5F5F5F5F5F5F5F5F5F5F5F5F5F5F5F5F5F5F5F5F5F5F5F5F5F5F5E2E2F5F5F5F5F5F5F5F5F5F5F5F5F5F5F5F5F5F5F5F5F5F5F5F5F5F5E2F5F5F5F5F5F5F5F5F5F5F5F5F5F5F5F5F5F5E2F5F5F5F5F5F5F5F5F5F5F5F5F5F5F5F5F5F5E2E2F5F5F5F5F5F5F5F5F5F5F5F5F5F5F5F5F5F5F5
310
F5F5E2EFE2F5F5F5F5F5F5F5F5F5F5F5F5F5F5F5F5F5F5F5F5F5E2E2F5F5F5F5F5F5F5F5F5F5F5F5F5F5F5F5E2F5F5F5F5F5F5F5F5F5F5F5F5F5F5F5F5F5F5E2F5F5F5F5F5F5F5F5F5F5F5F5F5F5F5F5F5F5F5F5F5F5F5F5F5F5F5F5F5F5F5E2E2F5F5F5F5F5F5F5F5F5F5F5F5F5F5F5F5F5F5F5F5F5F5F5F5E2F5F5F5F5F5
310
F5F5F5F5F5F5F5F5F5F5F5F5F5E2F5F5F5F5F5F5F5F5F5F5F5F5F5F5F5F5F5F5E2E2F5F5F5F5F5F5F5F5F5F5F5F5F5F5F5F5F5F5F5F5F5E2EFE2F5F5F5F5F5F5F5F5F5F5F5F5F5F5F5F5F5F5F5F5F5E2E2F5F5F5F5F5F5F5F5F5F5F5F5F5F5F5F5E2F5F5F5F5F5F5F5F5F5F5F5F5F5F5F5F5F5F5E2F5F5F5F5F5F5F5F5F5F5
310
F5F5F5F5F5F5F5F5F5F5F5F5F5F5F5F5F5F5F5F5F5F5F5E2E2E2E2E2E2E2E2E2E2E2F5F5F5F5F5F5F5F5F5F5F5F5F5E2F5F5F5F5F5F5F5F5F5F5F5F5F5F5F5F5F5F5E2F5F5F5F5F5F5F5F5F5F5F5F5F5F5F5F5F5F5E2E2F5F5F5F5F5F5F5F5F5F5F5F5F5F5F5F5F5F5F5F5F5E2EFE2F5F5F5F5F5F5F5F5F5F5F5F5F5F5F5F5
310
F5F5F5F5F5E2E2F5F5F5F5F5F5F5F5F5F5F5F5F5F5F5F5E2F5F5F5F5F5F5F5F5F5F5F5F5F5F5F5F5F5F5E2F5F5F5F5F5F5F5F5F5F5F5F5F5F5F5F5F5F5F5F5F5F5F5F5F5F5F5F5F5F5F5F5F5F5F5F5F5F5F5F5F5F5F5F5F5F5F5F5F5F5F5F5F5F5F5F5F5E2F5F5F5F5F5F5F5F5F5F5F5F5F5F5F5F5F5F5E2F5F5F5F5F5F5F5
310
F5F5F5F5F5F5F5F5F5F5F5E2E2F5F5F5F5F5F5F5F5F5F5F5F5F5F5F5F5F5F5F5F5F5E2EFE2F5F5F5F5F5F5F5F5F5F5F5F5F5F5F5F5F5F5F5F5F5E2E2F5F5F5F5F5F5F5F5F5F5F5F5F5F5F5F5E2F5F5F5F5F5F5F5F5F5F5F5F5F5F5F5F5F5F5E2F5F5F5F5F5F5F5F5F5F5F5F5F5F5F5F5F5F5F5F5F5F5F5F5F5F5F5F5F5F5F5
310
F5F5F5F5F5F5F5F5F5F5F5F5F5F5F5F5F5F5F5F5F5F5F5F5F5F5E2F5F5F5F5F5F5F5F5F5F5F5F5F5F5F5F5F5F5E2F5F5F5F5F5F5F5F5F5F5F5F5F5F5F5F5F5F5E2E2F5F5F5F5F5F5F5F5F5F5F5F5F5F5F5F5F5F5F5F5F5E2EFE2F5F5F5F5F5F5F5F5F5F5F5F5F5F5F5F5F5F5F5F5F5E2E2F5F5F5F5F5F5F5F5F5F5F5F5F5F5
310
F5F5E2F5F5F5F5F5F5F5F5F5F5F5F5F5F5F5F5F5F5E2F5F5F5F5F5F5F5F5F5F5F5F5F5F5F5F5F5F5F5F5F5F5F5F5F5F5F5F5F5F5F5F5F5F5F5F5F5F5F5F5F5F5F5F5F5F5F5F5F5F5F5F5F5F5F5F5F5E2F5F5F5F5F5F5F5F5F5F5F5F5F5F5F5F5F5F5E2F5F5F5F5F5F5F5F5F5F5F5F5F5F5F5F5F5F5E2E2F5F5F5F5F5F5F5F5
310
F5F5F5F5F5F5F5F5F5F5F5F5F5E2EFE2F5F5F5F5F5F5F5F5F5F5F5F5F5F5F5F5F5F5F5F5F5E2E2F5F5F5F5F5F5F5F5F5F5F5F5F5F5F5F5E2F5F5F5F5F5F5F5F5F5F5F5F5F5F5F5F5F5F5E2F5F5F5F5F5F5F5F5F5F5F5F5F5F5F5F5F5F5F5F5F5F5F5F5F5F5F5F5F5F5F5F5F5F5F5F5F5F5F5F5F5F5F5F5F5F5F5F5F5F5F5F5
310
F5F5F5F5F5E2F5F5F5F5F5F5F5F5F5F5F5F5F5F5F5F5F5F5E2F5F5F5F5F5F5F5F5F5F5F5F5F5F5F5F5F5F5E2E2F5F5F5F5F5F5F5F5F5F5F5F5F5F5F5F5F5F5F5F5F5E2EFE2F5F5F5F5F5F5F5F5F5F5F5F5F5F5F5F5F5F5F5F5F5E2E2F5F5F5F5F5F5F5F5F5F5F5F5F5F5F5F5E2F5F5F5F5F5F5F5F5F5F5F5F5F5F5F5F5F5F5
310
E2F5F5F5F5F5F5F5F5F5F5F5F5F5F5F5F5F5F5F5F5F5F5F5F5F5F5F5F5F5F5F5F5F5F5F5F5F5F5F5F5F5F5F5F5F5F5F5F5F5F5F5F5F5F5F5F5F5E2F5F5F5F5F5F5F5F5F5F5F5F5F5F5F5F5F5F5E2F5F5F5F5F5F5F5F5F5F5F5F5F5F5F5F5F5F5E2E2F5F5F5F5F5F5F5F5F5F5F5F5F5F5F5F5F5F5F5F5F5E2EFE2F5F5F5F5F5
310
F5F5F5F5F5F5F5F5F5F5F5F5F5F5F5F5E2E2F5F5F5F5F5F5F5F5F5F5F5F5F5F5F5F5E2F5F5F5F5F5F5F5F5F5F5F5F5F5F5F5F5F5F5E2F5F5F5F5F5F5F5F5F5F5F5F5F5F5F5F5F5F5F5F5F5F5F5F5F5F5F5F5F5F5F5F5F5F5F5F5F5F5F5F5F5F5F5F5F5F5F5F5F5F5F5F5F5F5F5F5F5E2F5F5F5F5F5F5F5F5F5F5F5F5F5F5F5
310
F5F5F5E2F5F5F5F5F5F5F5F5F5F5F5F5F5F5F5F5F5F5E2E2F5F5F5F5F5F5F5F5F5F5F5F5F5F5F5F5F5F5F5F5F5E2EFE2F5F5F5F5F5F5F5F5F5F5F5F5F5F5F5F5F5F5F5F5F5E2E2F5F5F5F5F5F5F5F5F5F5F5F5F5F5F5F5E2F5F5F5F5F5F5F5F5F5F5F5F5F5F5F5F5F5F5E2F5F5F5F5F5F5F5F5F5F5F5F5F5F5F5F5F5F5F5F5
310
F5F5F5F5F5F5F5F5F5F5F5F5F5F5F5F5F5F5F5F5F5F5F5F5F5F5F5F5F5F5F5F5F5F5F5F5F5E2F5F5F5F5F5F5F5F5F5F5F5F5F5F5F5F5F5F5E2F5F5F5F5F5F5F5F5F5F5F5F5F5F5F5F5F5F5E2E2F5F5F5F5F5F5F5F5F5F5F5F5F5F5F5F5F5F5F5F5F5E2EFE2F5F5F5F5F5F5F5F5F5F5F5F5F5F5F5F5F5F5F5F5F5E2E2F5F5F5
310
F5F5F5F5F5F5F5F5F5F5F5F5F5E2F5F5F5F5F5F5F5F5F5F5F5F5F5F5F5F5F5F5E2F5F5F5F5F5F5F5F5F5F5F5F5F5F5F5F5F5F5F5F5F5F5F5F5F5F5F5F5F5F5F5F5F5F5F5F5F5F5F5F5F5F5F5F5F5F5F5F5F5F5F5F5F5F5F5F5F5E2F5F5F5F5F5F5F5F5F5F5F5F5F5F5F5F5F5F5E2F5F5F5F5F5F5F5F5F5F5F5F5F5F5F5F5F5
310
F5E2E2F5F5F5F5F5F5F5F5F5F5F5F5F5F5F5F5F5F5F5F5F5E2EFE2F5F5F5F5F5F5F5F5F5F5F5F5F5F5F5F5F5F5F5F5F5E2E2F5F5F5F5F5F5F5F5F5F5F5F5F5F5F5F5E2F5F5F5F5F5F5F5F5F5F5F5F5F5F5F5F5F5F5E2F5F5F5F5F5F5F5F5F5F5F5F5F5F5F5F5F5F5F5F5F5F5F5F5F5F5F5F5F5F5F5F5F5F5F5F5F5F5F5F5F5
310
F5F5F5F5F5F5F5F5F5F5F5F5F5F5F5F5E2F5F5F5F5F5F5F5F5F5F5F5F5F5F5F5F5F5F5E2F5F5F5F5F5F5F5F5F5F5F5F5F5F5F5F5F5F5E2E2F5F5F5F5F5F5F5F5F5F5F5F5F5F5F5F5F5F5F5F5F5E2EFE2F5F5F5F5F5F5F5F5F5F5F5F5F5F5F5F5F5F5F5F5F5E2E2F5F5F5F5F5F5F5F5F5F5F5F5F5F5F5F5E2F5F5F5F5F5F5F5
310
F5F5F5F5F5F5F5F5F5F5F5E2F5F5F5F5F5F5F5F5F5F5F5F5F5F5F5F5F5F5F5F5F5F5F5F5F5F5F5F5F5F5F5F5F5F5F5F5F5F5F5F5F5F5F5F5F5F5F5F5F5F5F5F5F5F5F5F5F5E2F5F5F5F5F5F5F5F5F5F5F5F5F5F5F5F5F5F5E2F5F5F5F5F5F5F5F5F5F5F5F5F5F5F5F5F5F5E2E2F5F5F5F5F5F5F5F5F5F5F5F5F5F5F5F5F5F5
310
F5F5F5E2EFE2F5F5F5F5F5F5F5F5F5F5F5F5F5F5F5F5F5F5F5F5F5E2E2F5F5F5F5F5F5F5F5F5F5F5F5F5F5F5F5E2F5F5F5F5F5F5F5F5F5F5F5F5F5F5F5F5F5F5E2F5F5F5F5F5F5F5F5F5F5F5F5F5F5F5F5F5F5F5F5F5F5F5F5F5F5F5F5F5F5F5F5F5F5F5F5F5F5F5F5F5F5F5F5F5F5F5F5F5F5F5F5F5F5F5F5F5E2F5F5F5F5
310
F5F5F5F5F5F5F5F5F5F5F5F5F5F5E2F5F5F5F5F5F5F5F5F5F5F5F5F5F5F5F5F5F5E2E2F5F5F5F5F5F5F5F5F5F5F5F5F5F5F5F5F5F5F5F5F5E2EFE2F5F5F5F5F5F5F5F5F5F5F5F5F5F5F5F5F5F5F5F5F5E2E2F5F5F5F5F5F5F5F5F5F5F5F5F5F5F5F5E2F5F5F5F5F5F5F5F5F5F5F5F5F5F5F5F5F5F5E2F5F5F5F5F5F5F5F5F5
310
F5F5F5F5F5F5F5F5F5F5F5F5F5F5F5F5F5F5F5F5F5F5F5F5F5F5F5F5F5F5F5F5F5F5F5F5F5F5F5F5F5F5F5F5F5F5F5F5E2F5F5F5F5F5F5F5F5F5F5F5F5F5F5F5F5F5F5E2F5F5F5F5F5F5F5F5F5F5F5F5F5F5F5F5F5F5E2E2F5F5F5F5F5F5F5F5F5F5F5F5F5F5F5F5F5F5F5F5F5E2EFE2F5F5F5F5F5F5F5F5F5F5F5F5F5F5F5
310
F5F5F5F5F5F5E2E2F5F5F5F5F5F5F5F5F5F5F5F5F5F5F5F5E2F5F5F5F5F5F5F5F5F5F5F5F5F5F5F5F5F5F5E2F5F5F5F5F5F5F5F5F5F5F5F5F5F5F5F5F5F5F5F5F5F5F5F5F5F5F5F5F5F5F5F5F5F5F5F5F5F5F5F5F5F5F5F5F5F5F5F5F5F5F5F5F5F5F5F5F5E2F5F5F5F5F5F5F5F5F5F5F5F5F5F5F5F5F5F5E2F5F5F5F5F5F5
310
F5F5F5F5F5F5F5F5F5F5F5F5E2E2F5F5F5F5F5F5F5F5F5F5F5F5F5F5F5F5F5F5F5F5F5E2EFE2F5F5F5F5F5F5F5F5F5F5F5F5F5F5F5F5F5F5F5F5F5E2E2F5F5F5F5F5F5F5F5F5F5F5F5F5F5F5F5E2F5F5F5F5F5F5F5F5F5F5F5F5F5F5F5F5F5F5E2F5F5F5F5F5F5F5F5F5F5F5F5F5F5F5F5F5F5F5F5F5F5F5F5F5F5F5F5F5F5
310
F5F5F5F5F5F5F5F5F5F5F5F5F5F5F5F5F5F5F5F5F5F5F5F5F5F5F5E2F5F5F5F5F5F5F5F5F5F5F5F5F5F5F5F5F5F5E2F5F5F5F5F5F5F5F5F5F5F5F5F5F5F5F5F5F5E2E2F5F5F5F5F5F5F5F5F5F5F5F5F5F5F5F5F5F5F5F5F5E2EFE2F5F5F5F5F5F5F5F5F5F5F5F5F5F5F5F5F5F5F5F5F5E2E2F5F5F5F5F5F5F5F5E2E2E2E2E2
310
E2F5F5E2E2E2E2E2E2E2E2E2E2F5F5F5E2E2E2E2E2E2E2E2E2F5F5F5E2E2E2E2E2E2E2E2E2F5F5F5F5E2E2E2E2E2E2E2E2E2F5F5F5E2E2E2E2E2E2E2E2E2F5F5F5E2E2E2E2E2E2E2E2E2F5F5F5E2E2E2E2E2E2E2E2E2F5F5F5E2E2E2E2E2E2E2E2E2F5E2F5F5E2E2E2E2E2E2F5F5F5F5F5F5F5F5F5F5E2E2F5F5F5F5F5F5F5
310
F5F5F5F5F5F5F5F5F5F5F5F5F5F5E2EFE2F5F5F5F5F5F5F5F5F5F5F5F5F5F5F5F5F5F5F5F5F5E2E2F5F5F5F5F5F5F5F5F5F5F5F5F5F5F5F5F5F5F5F5F5F5F5F5F5F5F5F5F5F5F5F5F5F5F5F5F5F5F5F5F5F5F5F5F5F5F5F5F5F5F5F5F5F5F5F5F5F5F5F5F5F5F5F5F5F5F5F5F5F5F5F5F5F5F5F5F5F5F5F5F5F5F5F5F5F5F5
310
F5F5F5F5F5F5F5F5F5F5F5F5F5F5F5F5F5F5F5F5F5F5F5F5F5F5F5F5F5F5F5F5F5F5F5F5F5F5F5F5F5F5F5F5E2E2F5F5F5F5F5F5F5F5F5F5F5F5F5F5F5F5F5F5F5F5F5E2EFE2F5F5F5F5F5F5F5F5F5F5F5F5F5F5F5F5F5F5F5F5F5E2E2F5F5F5F5F5F5F5F5F5F5F5F5F5F5F5F5F5F5F5F5F5F5F5F5F5F5F5F5F5F5F5F5F5F5
310
F5F5F5F5F5F5F5F5F5F5F5F5F5F5F5F5F5F5F5F5F5F5F5F5F5F5F5F5F5F5F5F5F5F5F5F5F5F5F5F5F5F5F5F5F5F5F5F5F5F5F5F5F5F5F5F5F5F5F5F5F5F5F5F5F5F5F5F5F5F5F5F5F5F5F5F5F5F5F5F5F5F5F5F5F5F5F5F5F5F5F5F5F5F5F5F5F5E2E2F5F5F5F5F5F5F5F5F5F5F5F5F5F5F5F5F5F5F5F5F5E2EFE2F5F5F5F5
310
F5F5F5F5F5F5F5F5F5F5F5F5F5F5F5F5F5E2E2E2E2E2E2E2E2E2E2E2E2E2E2E2E2E2E2E2E2E2E2E2E2E2E2E2E2E2E2E2E2E2E2E2E2E2E2E2E2E2E2E2E2E2E2E2E2E2E2E2E2E2E2E2E2E2E2E2E2E2E2E2E2E2E2E2E2E2E2E2E2E2E2E2E2E2E2E2E2E2E2E2E2E2E2E2E2E2E2E2E2E2E2E2E2E2E2E2E2E2E2E2E2E2E2E2E2E2E2
310
E2E2E2E2E2E2E2E2E2E2E2E2E2E2E2E2E2E2E2E2E2E2E2E2E2F5F5F5F5F5F5F5F5F5F5F5F5F5F5F5F5F5F5F5F5F5E2EFE2F5F5F5F5F5F5F5F5F5F5F5F5F5F5F5F5F5F5F5F5F5E2E2E2E2E2E2E2E2E2E2E2E2E2E2E2E2E2E2E2E2E2E2E2E2E2E2E2E2E2E2E2E2E2E2E2E2E2E2E2E2E2E2E2E2E2E2E2E2E2E2E2E2E2E2E2E2E2
310
E2E2E2E2E2E2E2E2E2E2E2E2E2E2E2E2E2E2E2E2E2E2E2E2E2E2E2E2E2E2E2E2E2E2E2E2E2E2E2E2E2E2E2E2E2E2E2E2E2E2E2E2E2E2E2E2E2E2E2E2E2E2E2E2E2E2E2E2E2E2E2E2E2E2E2E2E2E2F5F5F5F5F5F5F5F5F5F5F5F5F5F5F5F5F5F5F5F5F5E2EFE2F5F5F5F5F5F5F5F5F5F5F5F5F5F5F5F5F5F5F5F5F5F5F5F5F5
310
F5F5F5F5F5F5F5F5F5F5F5F5F5F5F5F5F5F5F5F5F5F5F5F5F5F5F5F5F5F5F5F5F5F5F5F5F5F5F5F5F5F5F5F5F5F5F5F5F5F5F5F5F5F5F5F5F5F5F5F5F5F5F5F5F5F5F5F5F5F5F5F5F5F5F5F5F5F5F5F5F5F5F5F5F5F5F5F5F5F5F5F5F5F5F5F5F5F5F5F5F5F5F5F5F5F5F5F5F5F5F5F5F5F5F5F5F5F5F5F5F5F5F5F5F5F5F5
310
F5F5F5F5F5F5F5F5F5F5F5F5F5F5F5F5F5F5F5F5F5F5F5F5F5E2EFE2F5F5F5F5F5F5F5F5F5F5F5F5F5F5F5F5F5F5F5F5F5F5F5F5F5F5F5F5F5F5F5F5F5F5F5F5F5F5F5F5F5F5F5F5F5F5F5F5F5F5F5F5F5F5F5F5F5F5F5F5F5F5F5F5F5F5F5F5F5F5F5F5F5F5F5F5F5F5F5F5F5F5F5F5F5F5F5F5F5F5F5F5F5F5F5F5F5F5F5
310
F5F5F5F5F5F5F5F5F5F5F5F5F5F5F5F5F5F5F5F5F5F5F5F5F5F5F5F5F5F5F5F5F5F5F5F5F5F5F5F5F5F5F5F5F5F5F5F5F5F5F5F5F5F5F5F5F5F5F5F5F5F5F5F5F5F5F5F5F5F5F5F5F5F5F5F5F5F5E2EFE2F5F5F5F5F5F5F5F5F5F5F5F5F5F5F5F5F5F5F5F5F5F5F5F5F5F5F5F5F5F5F5F5F5F5F5F5F5F5F5F5F5F5F5F5F5F5
310
F5F5F5F5F5F5F5F5F5F5F5F5F5F5F5F5F5F5F5F5F5F5F5F5F5F5F5F5F5F5F5F5F5F5F5F5F5F5F5F5F5F5F5F5F5F5F5F5F5F5F5F5F5F5F5F5F5F5F5F5F5F5F5F5F5F5F5F5F5F5F5F5F5F5F5F5F5F5F5F5F5F5F5F5F5F5F5F5F5F5F5F5F5F5F5F5F5F5F5F5F5F5F5F5F5F5F5F5F5F5F5F5F5F5F5F5F5F5F5F5F5F5F5F5F5F5F5
310
F5F5F5F5E2EFE2F5F5F5F5F5F5F5F5F5F5F5F5F5F5F5F5F5F5F5F5F5F5F5F5F5F5F5F5F5F5F5F5F5F5F5F5F5F5F5F5F5F5F5F5F5F5F5F5F5F5F5F5F5F5F5F5F5F5F5F5F5F5F5F5F5F5F5F5F5F5F5F5F5F5F5F5F5F5F5F5F5F5F5F5F5F5F5F5F5F5F5F5F5F5F5F5F5F5F5F5F5F5F5F5F5F5F5F5F5F5F5F5F5F5F5F5F5F5F5F5
310
F5F5F5F5F5F5F5F5F5F5F5F5F5F5F5F5F5F5F5F5F5F5F5F5F5F5F5F5F5F5F5F5F5F5F5F5F5F5F5F5F5F5F5F5F5F5F5F5F5F5F5F5F5F5F5F5F5E2EFE2F5F5F5F5F5F5F5F5F5F5F5F5F5F5F5F5F5F5F5F5F5F5F5F5F5F5F5F5F5F5F5F5F5F5F5F5F5F5F5F5F5F5F5F5F5F5F5F5F5F5F5F5F5F5F5F5F5F5F5F5F5F5F5F5F5F5F5
310
F5F5F5F5F5F5F5F5F5F5F5F5F5F5F5F5F5F5F5F5F5F5F5F5F5F5F5F5F5F5F5F5F5F5F5F5F5F5F5F5F5F5F5F5F5F5F5F5F5F5F5F5F5F5F5F5F5F5F5F5F5F5F5F5F5F5F5F5F5F5F5F5F5F5F5F5F5F5F5F5F5F5F5F5F5F5F5F5F5F5F5F5F5F5F5F5F5F5F5F5F5F5F5F5F5F5F5F5F5F5E2EFE2F5F5F5F5F5F5F5F5F5F5F5F5F5F5
310
F5F5F5F5F5F5F5F5F5F5F5F5F5F5F5F5F5F5F5F5F5F5F5F5F5F5F5F5F5F5F5F5F5F5F5F5F5F5F5F5F5F5F5F5F5F5F5F5F5F5F5F5F5F5F5F5F5F5F5F5F5F5F5F5F5F5F5F5F5F5F5F5F5F5F5F5F5F5F5F5F5F5F5F5F5F5F5F5F5F5F5F5F5F5F5F5F5F5F5F5F5F5F5F5F5F5F5F5F5F5F5F5F5F5F5F5F5F5F5F5F5F5F5F5F5F5F5
310
F5F5F5F5F5F5F5F5F5F5F5F5F5F5F5F5F5F5F5F5F5F5F5F5F5F5F5F5F5F5F5F5F5F5F5F5E2EFE2F5F5F5F5F5F5F5F5F5F5F5F5F5F5F5F5F5F5F5F5F5F5F5F5F5F5F5F5F5F5F5F5F5F5F5F5F5F5F5F5F5F5F5F5F5F5F5F5F5F5F5F5F5F5F5F5F5F5F5F5F5F5F5F5F5F5F5F5F5F5F5F5F5F5F5F5F5F5F5F5F5F5F5F5F5F5F5F5
310
F5F5F5F5F5F5F5F5F5F5F5F5F5F5F5F5F5F5F5F5F5F5F5F5F5F5F5F5F5F5F5F5F5F5F5F5F5F5F5F5F5F5F5F5F5F5F5F5F5F5F5F5F5F5F5F5F5F5F5F5F5F5F5F5F5F5F5F5F5F5F5F5F5F5F5F5F5F5F5F5F5F5F5F5F5F5F5F5F5E2EFE2F5F5F5F5F5F5F5F5F5F5F5F5F5F5F5F5F5F5F5F5F5F5F5F5F5F5F5F5F5F5F5F5F5F5F5
310
F5F5F5F5F5F5F5F5F5F5F5F5F5F5F5F5F5F5F5F5F5F5F5F5F5F5F5F5F5F5F5F5F5F5F5F5F5F5F5F5F5F5F5F5F5F5F5F5F5F5F5F5F5F5F5F5F5F5F5F5F5F5F5F5F5F5F5F5F5F5F5F5F5F5F5F5F5F5F5F5F5F5F5F5F5F5F5F5F5F5F5F5F5F5F5F5F5F5F5F5F5F5F5F5F5F5F5F5F5F5F5F5F5F5F5F5F5F5F5F5F5F5F5F5F5F5F5
310
F5F5F5F5F5F5F5F5F5F5F5F5F5F5F5E2EFE2F5F5F5F5F5F5F5F5F5F5F5F5F5F5F5F5F5F5F5F5F5F5F5F5F5F5F5F5F5F5F5F5F5F5F5F5F5F5F5F5F5F5F5F5F5F5F5F5F5F5F5F5F5F5F5F5F5F5F5F5F5F5F5F5F5F5F5F5F5F5F5F5F5F5F5F5F5F5F5F5F5F5F5F5F5F5F5F5F5F5F5F5F5F5F5F5F5F5F5F5F5F5F5F5F5F5F5F5F5
310
F5F5F5F5F5F5F5F5F5F5F5F5F5F5F5F5F5F5F5F5F5F5F5F5F5F5F5F5F5F5F5F5F5F5F5F5F5F5F5F5F5F5F5F5F5F5F5F5F5F5F5F5F5F5F5F5F5F5F5F5F5F5F5F5F5F5F5F5E2EFE2F5F5F5F5F5F5F5F5F5F5F5F5F5F5F5F5F5F5F5F5F5F5F5F5F5F5F5F5F5F5F5F5F5F5F5F5F5F5F5F5F5F5F5F5F5F5F5F5F5F5F5F5F5F5F5F5
310
F5F5F5F5F5F5F5F5F5F5F5F5F5F5F5F5F5F5F5F5F5F5F5F5F5F5F5F5F5F5F5F5F5F5F5F5F5F5F5F5F5F5F5F5F5F5F5F5F5F5F5F5F5F5F5F5F5F5F5F5F5F5F5F5F5F5F5F5F5F5F5F5F5F5F5F5F5F5F5F5F5F5F5F5F5F5F5F5F5F5F5F5F5F5F5F5F5F5F5F5F5F5F5F5F5F5F5F5F5F5F5F5F5F5F5F5F5F5F5F5F5E2EFE2F5F5F5
310
F5F5F5F5F5F5F5F5F5F5F5F5F5F5F5F5F5F5F5F5F5F5F5F5F5F5F5F5F5F5F5F5F5F5F5F5F5F5F5F5F5F5F5F5F5F5F5F5F5F5F5F5F5F5F5F5F5F5F5F5F5F5F5F5F5F5F5F5F5F5F5F5F5F5F5F5F5F5F5F5F5F5F5F5F5F5F5F5F5F5F5F5F5F5F5F5F5F5F5F5F5F5F5F5F5F5F5F5F5F5F5F5F5F5F5F5F5F5F5F5F5F5F5F5F5F5F5
310
F5F5F5F5F5F5F5F5F5F5F5F5F5F5F5F5F5F5F5F5F5F5F5F5F5F5F5F5F5F5F5F5F5F5F5F5F5F5F5F5F5F5F5F5F5F5F5E2EFE2F5F5F5F5F5F5F5F5F5F5F5F5F5F5F5F5F5F5F5F5F5F5F5F5F5F5F5F5F5F5F5F5F5F5F5F5F5F5F5F5F5F5F5F5F5F5F5F5F5F5F5F5F5F5F5F5F5F5F5F5F5F5F5F5F5F5F5F5F5F5F5F5F5F5F5F5F5
310
F5F5F5F5F5F5F5F5F5F5F5F5F5F5F5F5F5F5F5F5F5F5F5F5F5F5F5F5F5F5F5F5F5F5F5F5F5F5F5F5F5F5F5F5F5F5F5F5F5F5F5F5F5F5F5F5F5F5F5F5F5F5F5F5F5F5F5F5F5F5F5F5F5F5F5F5F5F5F5F5F5F5F5F5F5F5F5F5F5F5F5F5F5F5F5F5F5F5F5F5E2EFE2F5F5F5F5F5F5F5F5F5F5F5F5F5F5F5F5F5F5F5F5F5F5F5F5
310
F5F5F5F5F5F5F5F5F5F5F5F5F5F5F5F5F5F5F5F5F5F5F5F5F5F5F5F5F5F5F5F5F5F5F5F5F5F5F5F5F5F5F5F5F5F5F5F5F5F5F5F5F5F5F5F5F5F5F5F5F5F5F5F5F5F5F5F5F5F5F5F5F5F5F5F5F5F5F5F5F5F5F5F5F5F5F5F5F5F5F5F5F5F5F5F5F5F5F5F5F5F5F5F5F5F5F5F5F5F5F5F5F5F5F5F5F5F5F5F5F5F5F5F5F5F5F5
310
F5F5F5F5F5F5F5F5F5F5F5F5F5F5F5F5F5F5F5F5F5F5F5F5F5F5E2EFE2F5F5F5F5F5F5F5F5F5F5F5F5F5F5F5F5F5F5F5F5F5F5F5F5F5F5F5F5F5F5F5F5F5F5F5F5F5F5F5F5F5F5F5F5F5F5F5F5F5F5F5F5F5F5F5F5F5F5F5F5F5F5F5F5F5F5F5F5F5F5F5F5F5F5F5F5F5F5F5F5F5F5F5F5F5F5F5F5F5F5F5F5F5F5F5F5F5F5
310
F5F5F5F5F5F5F5F5F5F5F5F5F5F5F5F5F5F5F5F5F5F5F5F5F5F5F5F5F5F5F5F5F5F5F5F5F5F5F5F5F5F5F5F5F5F5F5F5F5F5F5F5F5F5F5F5F5F5F5F5F5F5F5F5F5F5F5F5F5F5F5F5F5F5F5F5F5F5F5E2EFE2F5F5F5F5F5F5F5F5F5F5F5F5F5F5F5F5F5F5F5F5F5F5F5F5F5F5F5F5F5F5F5F5F5F5F5F5F5F5F5F5F5F5F5F5F5
310
F5F5F5F5F5F5F5F5F5F5F5F5F5F5F5F5F5F5F5F5F5F5F5F5F5F5F5F5F5F5F5F5F5F5F5F5F5F5F5F5F5F5F5F5F5F5F5F5F5F5F5F5F5F5F5F5F5F5F5F5F5F5F5F5F5F5F5F5F5F5F5F5F5F5F5F5F5F5F5F5F5F5F5F5F5F5F5F5F5F5F5F5F5F5F5F5F5F5F5F5F5F5F5F5F5F5F5F5F5F5F5F5F5F5F5F5F5F5F5F5F5F5F5F5F5F5F5
310
F5F5F5F5F5E2EFE2F5F5F5F5F5F5F5F5F5F5F5F5F5F5F5F5F5F5F5F5F5F5F5F5F5F5F5F5F5F5F5F5F5F5F5F5F5F5F5F5F5F5F5F5F5F5F5F5F5F5F5F5F5F5F5F5F5F5F5F5F5F5F5F5F5F5F5F5F5F5F5F5F5F5F5F5F5F5F5F5F5F5F5F5F5F5F5F5F5F5F5F5F5F5F5F5F5F5F5F5F5F5F5F5F5F5F5F5F5F5F5F5F5F5F5F5F5F5F5
310
F5F5F5F5F5F5F5F5F5F5F5F5F5F5F5F5F5F5F5F5F5F5F5F5F5F5F5F5F5F5F5F5F5F5F5F5F5F5F5F5F5F5F5F5F5F5F5F5F5F5F5F5F5F5F5F5F5F5E2EFE2F5F5F5F5F5F5F5F5F5F5F5F5F5F5F5F5F5F5F5F5F5F5F5F5F5F5F5F5F5F5F5F5F5F5F5F5F5F5F5F5F5F5F5F5F5F5F5F5F5F5F5F5F5F5F5F5F5F5F5F5F5F5F5F5F5F5
310
F5F5F5F5F5F5F5F5F5F5F5F5F5F5F5F5F5F5F5F5F5F5F5F5F5F5F5F5F5F5F5F5F5F5F5F5F5F5F5F5F5F5F5F5F5F5F5F5F5F5F5F5F5F5F5F5F5F5F5F5F5F5F5F5F5F5F5F5F5F5F5F5F5F5F5F5F5F5F5F5F5F5F5F5F5F5F5F5F5F5F5F5F5F5F5F5F5F5F5F5F5F5F5F5F5F5F5F5F5F5F5E2EFE2F5F5F5F5F5F5F5F5F5F5F5F5F5
310
F5F5F5F5F5F5F5F5F5F5F5F5F5F5F5F5F5F5F5F5F5F5F5F5F5F5F5F5F5F5F5F5F5F5F5F5F5F5F5F5F5F5F5F5F5F5F5F5F5F5F5F5F5F5F5F5F5F5F5F5F5F5F5F5F5F5F5F5F5F5F5F5F5F5F5F5F5F5F5F5F5F5F5F5F5F5F5F5F5F5F5F5F5F5F5F5F5F5F5F5F5F5F5F5F5F5F5F5F5F5F5F5F5F5F5F5F5F5F5F5F5F5F5F5F5F5F5
310
F5F5F5F5F5F5F5F5F5F5F5F5F5F5F5F5F5F5F5F5F5F5F5F5F5F5F5F5F5F5F5F5F5F5F5F5F5E2EFE2F5F5F5F5F5F5F5F5F5F5F5F5F5F5F5F5F5F5F5F5F5F5F5F5F5F5F5F5F5F5F5F5F5F5F5F5F5F5F5F5F5F5F5F5F5F5F5F5F5F5F5F5F5F5F5F5F5F5F5F5F5F5F5F5F5F5F5F5F5F5F5F5F5F5F5F5F5F5F5F5F5F5F5F5F5F5F5
310
F5F5F5F5F5F5F5F5F5F5F5F5F5F5F5F5F5F5F5F5F5F5F5F5F5F5F5F5F5F5F5F5F5F5F5F5F5F5F5F5F5F5F5F5F5F5F5F5F5F5F5F5F5F5F5F5F5F5F5F5F5F5F5F5F5F5F5F5F5F5F5F5F5F5F5F5F5F5F5F5F5F5F5F5F5F5F5F5F5F5E2EFE2F5F5F5F5F5F5F5F5F5F5F5F5F5F5F5F5F5F5F5F5F5F5F5F5F5F5F5F5F5F5F5F5F5F5
310
F5F5F5F5F5F5F5F5F5F5F5F5F5F5F5F5F5F5F5F5F5F5F5F5F5F5F5F5F5F5F5F5F5F5F5F5F5F5F5F5F5F5F5F5F5F5F5F5F5F5F5F5F5F5F5F5F5F5F5F5F5F5F5F5F5F5F5F5F5F5F5F5F5F5F5F5F5F5F5F5F5F5F5F5F5F5F5F5F5F5F5F5F5F5F5F5F5F5F5F5F5F5F5F5F5F5F5F5F5F5F5F5F5F5F5F5F5F5F5F5F5F5F5F5F5F5F5
310
F5F5F5F5F5F5F5F5F5F5F5F5F5F5F5F5E2EFE2F5F5F5F5F5F5F5F5F5F5F5F5F5F5F5F5F5F5F5F5F5F5F5F5F5F5F5F5F5F5F5F5F5F5F5F5F5F5F5F5F5F5F5F5F5F5F5F5F5F5F5F5F5F5F5F5F5F5F5F5F5F5F5F5F5F5F5F5F5F5F5F5F5F5F5F5F5F5F5F5F5F5F5F5F5F5F5F5F5F5F5F5F5F5F5F5F5F5F5F5F5F5F5F5F5F5F5F5
310
F5F5F5F5F5F5F5F5F5F5F5F5F5F5F5F5F5F5F5F5F5F5F5F5F5F5F5F5F5F5F5F5F5F5F5F5F5F5F5F5F5F5F5F5F5F5F5F5F5F5F5F5F5F5F5F5F5F5F5F5F5F5F5F5F5F5F5F5F5E2EFE2F5F5F5F5F5F5F5F5F5F5F5F5F5F5F5F5F5F5F5F5F5F5F5F5F5F5F5F5F5F5F5F5F5F5F5F5F5F5F5F5F5F5F5F5F5F5F5F5F5F5F5F5F5F5F5
310
F5F5F5F5F5F5F5F5F5F5F5F5F5F5F5F5F5F5F5F5F5F5F5F5F5F5F5F5F5F5F5F5F5F5F5F5F5F5F5F5F5F5F5F5F5F5F5F5F5F5F5F5F5F5F5F5F5F5F5F5F5F5F5F5F5F5F5F5F5F5F5F5F5F5F5F5F5F5F5F5F5F5F5F5F5F5F5F5F5F5F5F5F5F5F5F5F5F5F5F5F5F5F5F5F5F5F5F5F5F5F5F5F5F5F5F5F5F5F5F5F5F5E2EFE2E2E2
310
E2E2E2E2E2E2E2E2E2E2E2E2E2E2E2E2E2E2E2E2E2E2E2E2E2E2E2E2E2E2E2E2E2E2E2E2E2E2E2E2E2E2E2E2E2E2E2E2E2E2E2E2E2E2E2E2E2E2E2E2E2E2E2E2E2E2E2E2E2E2E2E2E2E2E2E2E2E2E2E2E2E2E2E2E2E2E2E2E2E2E2E2E2E2E2E2E2E2E2E2E2E2E2E2E2E2E2E2E2E2E2E2E2E2E2E2E2E2E2E2E2E2E2E2E2E2E2
310
E2E2E2E2E2E2E2E2E2E2E2E2E2E2E2E2E2E2E2E2E2E2E2E2E2E2E2E2E2E2E2E2E2E2E2E2E2E2E2E2E2E2E2E2E2E2E2E2E2
  0
XRECORD
  5
10347
102
{ACAD_REACTORS
330
102EF
102
}
330
102EF
100
AcDbXrecord
280
     1
102
MATERIAL
148
0.0
149
0.0
149
0.0
 93
        0
 94
      127
282
     0
 72
     0
 77
     0
171
     0
175
     0
179
     0
273
     0
  0
XRECORD
  5
102F1
102
{ACAD_REACTORS
330
102EF
102
}
330
102EF
100
AcDbXrecord
280
     1
270
     1
271
     1
  0
XRECORD
  5
102F0
102
{ACAD_REACTORS
330
102EF
102
}
330
102EF
100
AcDbXrecord
280
     1
270
     1
271
     1
  0
XRECORD
  5
102F4
102
{ACAD_REACTORS
330
102EF
102
}
330
102EF
100
AcDbXrecord
280
     1
270
     1
271
     1
  0
XRECORD
  5
102F3
102
{ACAD_REACTORS
330
102EF
102
}
330
102EF
100
AcDbXrecord
280
     1
270
     1
271
     1
  0
XRECORD
  5
102F5
102
{ACAD_REACTORS
330
102EF
102
}
330
102EF
100
AcDbXrecord
280
     1
270
     1
271
     1
  0
XRECORD
  5
102F2
102
{ACAD_REACTORS
330
102EF
102
}
330
102EF
100
AcDbXrecord
280
     1
270
     1
271
     1
  0
XRECORD
  5
10346
102
{ACAD_REACTORS
330
102E7
102
}
330
102E7
100
AcDbXrecord
280
     1
102
MATERIAL
148
0.0
149
0.0
149
0.0
 93
        0
 94
      127
282
     0
 72
     0
 77
     0
171
     0
175
     0
179
     0
273
     0
  0
XRECORD
  5
102E9
102
{ACAD_REACTORS
330
102E7
102
}
330
102E7
100
AcDbXrecord
280
     1
270
     1
271
     1
  0
XRECORD
  5
102E8
102
{ACAD_REACTORS
330
102E7
102
}
330
102E7
100
AcDbXrecord
280
     1
270
     1
271
     1
  0
XRECORD
  5
102EC
102
{ACAD_REACTORS
330
102E7
102
}
330
102E7
100
AcDbXrecord
280
     1
270
     1
271
     1
  0
XRECORD
  5
102EB
102
{ACAD_REACTORS
330
102E7
102
}
330
102E7
100
AcDbXrecord
280
     1
270
     1
271
     1
  0
XRECORD
  5
102ED
102
{ACAD_REACTORS
330
102E7
102
}
330
102E7
100
AcDbXrecord
280
     1
270
     1
271
     1
  0
XRECORD
  5
102EA
102
{ACAD_REACTORS
330
102E7
102
}
330
102E7
100
AcDbXrecord
280
     1
270
     1
271
     1
  0
XRECORD
  5
10345
102
{ACAD_REACTORS
330
10344
102
}
330
10344
100
AcDbXrecord
280
     1
102
MATERIAL
148
0.0
149
0.0
149
0.0
 93
        0
 94
       63
282
     0
 72
     1
 77
     1
171
     1
175
     1
179
     1
273
     0
  0
XRECORD
  5
1033F
102
{ACAD_REACTORS
330
1033E
102
}
330
1033E
100
AcDbXrecord
280
     1
102
ACAD_ROUNDTRIP_2012_MLEADER_STYLE
298
     1
  0
CELLSTYLEMAP
  5
1033D
102
{ACAD_REACTORS
330
1033C
102
}
330
1033C
100
AcDbCellStyleMap
 90
        3
300
CELLSTYLE
  1
TABLEFORMAT_BEGIN
 90
        5
170
     1
 91
        0
 92
    32768
 62
   257
 93
        1
300
CONTENTFORMAT
  1
CONTENTFORMAT_BEGIN
 90
        0
 91
        0
 92
        4
 93
        0
300

 40
0.0
140
1.0
 94
        5
 62
     0
340
11
144
0.25
309
CONTENTFORMAT_END
171
     0
 94
        6
 95
        1
302
GRIDFORMAT
  1
GRIDFORMAT_BEGIN
 90
        0
 91
        1
 62
     0
 92
       -2
340
0
 93
        0
 40
0.045
309
GRIDFORMAT_END
 95
        2
302
GRIDFORMAT
  1
GRIDFORMAT_BEGIN
 90
        0
 91
        1
 62
     0
 92
       -2
340
0
 93
        0
 40
0.045
309
GRIDFORMAT_END
 95
        4
302
GRIDFORMAT
  1
GRIDFORMAT_BEGIN
 90
        0
 91
        1
 62
     0
 92
       -2
340
0
 93
        0
 40
0.045
309
GRIDFORMAT_END
 95
        8
302
GRIDFORMAT
  1
GRIDFORMAT_BEGIN
 90
        0
 91
        1
 62
     0
 92
       -2
340
0
 93
        0
 40
0.045
309
GRIDFORMAT_END
 95
       16
302
GRIDFORMAT
  1
GRIDFORMAT_BEGIN
 90
        0
 91
        1
 62
     0
 92
       -2
340
0
 93
        0
 40
0.045
309
GRIDFORMAT_END
 95
       32
302
GRIDFORMAT
  1
GRIDFORMAT_BEGIN
 90
        0
 91
        1
 62
     0
 92
       -2
340
0
 93
        0
 40
0.045
309
GRIDFORMAT_END
309
TABLEFORMAT_END
  1
CELLSTYLE_BEGIN
 90
        1
 91
        1
300
_TITLE
309
CELLSTYLE_END
300
CELLSTYLE
  1
TABLEFORMAT_BEGIN
 90
        5
170
     1
 91
        0
 92
        0
 62
   257
 93
        1
300
CONTENTFORMAT
  1
CONTENTFORMAT_BEGIN
 90
        0
 91
        0
 92
        4
 93
        0
300

 40
0.0
140
1.0
 94
        5
 62
     0
340
11
144
0.18
309
CONTENTFORMAT_END
171
     0
 94
        6
 95
        1
302
GRIDFORMAT
  1
GRIDFORMAT_BEGIN
 90
        0
 91
        1
 62
     0
 92
       -2
340
0
 93
        0
 40
0.045
309
GRIDFORMAT_END
 95
        2
302
GRIDFORMAT
  1
GRIDFORMAT_BEGIN
 90
        0
 91
        1
 62
     0
 92
       -2
340
0
 93
        0
 40
0.045
309
GRIDFORMAT_END
 95
        4
302
GRIDFORMAT
  1
GRIDFORMAT_BEGIN
 90
        0
 91
        1
 62
     0
 92
       -2
340
0
 93
        0
 40
0.045
309
GRIDFORMAT_END
 95
        8
302
GRIDFORMAT
  1
GRIDFORMAT_BEGIN
 90
        0
 91
        1
 62
     0
 92
       -2
340
0
 93
        0
 40
0.045
309
GRIDFORMAT_END
 95
       16
302
GRIDFORMAT
  1
GRIDFORMAT_BEGIN
 90
        0
 91
        1
 62
     0
 92
       -2
340
0
 93
        0
 40
0.045
309
GRIDFORMAT_END
 95
       32
302
GRIDFORMAT
  1
GRIDFORMAT_BEGIN
 90
        0
 91
        1
 62
     0
 92
       -2
340
0
 93
        0
 40
0.045
309
GRIDFORMAT_END
309
TABLEFORMAT_END
  1
CELLSTYLE_BEGIN
 90
        2
 91
        1
300
_HEADER
309
CELLSTYLE_END
300
CELLSTYLE
  1
TABLEFORMAT_BEGIN
 90
        5
170
     1
 91
        0
 92
        0
 62
   257
 93
        1
300
CONTENTFORMAT
  1
CONTENTFORMAT_BEGIN
 90
        0
 91
        0
 92
        4
 93
        0
300

 40
0.0
140
1.0
 94
        2
 62
     0
340
11
144
0.18
309
CONTENTFORMAT_END
171
     0
 94
        6
 95
        1
302
GRIDFORMAT
  1
GRIDFORMAT_BEGIN
 90
        0
 91
        1
 62
     0
 92
       -2
340
0
 93
        0
 40
0.045
309
GRIDFORMAT_END
 95
        2
302
GRIDFORMAT
  1
GRIDFORMAT_BEGIN
 90
        0
 91
        1
 62
     0
 92
       -2
340
0
 93
        0
 40
0.045
309
GRIDFORMAT_END
 95
        4
302
GRIDFORMAT
  1
GRIDFORMAT_BEGIN
 90
        0
 91
        1
 62
     0
 92
       -2
340
0
 93
        0
 40
0.045
309
GRIDFORMAT_END
 95
        8
302
GRIDFORMAT
  1
GRIDFORMAT_BEGIN
 90
        0
 91
        1
 62
     0
 92
       -2
340
0
 93
        0
 40
0.045
309
GRIDFORMAT_END
 95
       16
302
GRIDFORMAT
  1
GRIDFORMAT_BEGIN
 90
        0
 91
        1
 62
     0
 92
       -2
340
0
 93
        0
 40
0.045
309
GRIDFORMAT_END
 95
       32
302
GRIDFORMAT
  1
GRIDFORMAT_BEGIN
 90
        0
 91
        1
 62
     0
 92
       -2
340
0
 93
        0
 40
0.045
309
GRIDFORMAT_END
309
TABLEFORMAT_END
  1
CELLSTYLE_BEGIN
 90
        3
 91
        2
300
_DATA
309
CELLSTYLE_END
  0
XRECORD
  5
10343
102
{ACAD_REACTORS
330
1033C
102
}
330
1033C
100
AcDbXrecord
280
     1
102
ACAD_ROUNDTRIP_PRE2007_TABLESTYLE
 90
        4
 91
        0
  1

 92
        4
 93
        0
  2

 94
        4
 95
        0
  3

  0
XRECORD
  5
10353
102
{ACAD_REACTORS
330
10352
102
}
330
10352
100
AcDbXrecord
280
     1
102
RTVSPropertyOp0
 70
     1
102
RTVSPropertyOp1
 70
     1
102
RTVSPropertyOp2
 70
     1
102
RTVSPropertyOp3
 70
     1
102
RTVSPropertyOp4
 70
     1
102
RTVSPropertyOp5
 70
     1
102
RTVSPropertyOp6
 70
     1
102
RTVSPropertyOp7
 70
     1
102
RTVSPropertyOp8
 70
     1
102
RTVSPropertyOp9
 70
     1
102
RTVSPropertyOp10
 70
     1
102
RTVSPropertyOp11
 70
     1
102
RTVSPropertyOp12
 70
     1
102
RTVSPropertyOp13
 70
     1
102
RTVSPropertyOp14
 70
     1
102
RTVSPropertyOp15
 70
     1
102
RTVSPropertyOp16
 70
     1
102
RTVSPropertyOp17
 70
     1
102
RTVSPropertyOp18
 70
     1
102
RTVSPropertyOp19
 70
     1
102
RTVSPropertyOp20
 70
     1
102
RTVSPropertyOp21
 70
     1
102
RTVSPropertyOp22
 70
     1
102
RTVSPropertyOp23
 70
     1
102
RTVSPropertyOp24
 70
     1
102
RTVSPropertyOp25
 70
     1
102
RTVSPropertyOp26
 70
     1
102
RTVSPropertyOp27
 70
     1
102
RTVSPropertyOp28
 70
     1
102
RTVSPropertyOp29
 70
     1
102
RTVSPropertyOp30
 70
     1
102
RTVSPropertyOp31
 70
     1
102
RTVSPropertyOp32
 70
     1
  0
XRECORD
  5
10351
102
{ACAD_REACTORS
330
10350
102
}
330
10350
100
AcDbXrecord
280
     1
102
RTVSPropertyOp0
 70
     1
102
RTVSPropertyOp1
 70
     1
102
RTVSPropertyOp2
 70
     1
102
RTVSPropertyOp3
 70
     1
102
RTVSPropertyOp4
 70
     1
102
RTVSPropertyOp5
 70
     1
102
RTVSPropertyOp6
 70
     1
102
RTVSPropertyOp7
 70
     1
102
RTVSPropertyOp8
 70
     1
102
RTVSPropertyOp9
 70
     1
102
RTVSPropertyOp10
 70
     1
102
RTVSPropertyOp11
 70
     1
102
RTVSPropertyOp12
 70
     1
102
RTVSPropertyOp13
 70
     1
102
RTVSPropertyOp14
 70
     1
102
RTVSPropertyOp15
 70
     1
102
RTVSPropertyOp16
 70
     1
102
RTVSPropertyOp17
 70
     1
102
RTVSPropertyOp18
 70
     1
102
RTVSPropertyOp19
 70
     1
102
RTVSPropertyOp20
 70
     1
102
RTVSPropertyOp21
 70
     1
102
RTVSPropertyOp22
 70
     1
102
RTVSPropertyOp23
 70
     1
102
RTVSPropertyOp24
 70
     1
102
RTVSPropertyOp25
 70
     1
102
RTVSPropertyOp26
 70
     1
102
RTVSPropertyOp27
 70
     1
102
RTVSPropertyOp28
 70
     1
102
RTVSPropertyOp29
 70
     1
102
RTVSPropertyOp30
 70
     1
102
RTVSPropertyOp31
 70
     1
102
RTVSPropertyOp32
 70
     1
  0
XRECORD
  5
1035F
102
{ACAD_REACTORS
330
1035E
102
}
330
1035E
100
AcDbXrecord
280
     1
102
RTVSPropertyOp0
 70
     1
102
RTVSPropertyOp1
 70
     1
102
RTVSPropertyOp2
 70
     1
102
RTVSPropertyOp3
 70
     1
102
RTVSPropertyOp4
 70
     1
102
RTVSPropertyOp5
 70
     1
102
RTVSPropertyOp6
 70
     1
102
RTVSPropertyOp7
 70
     1
102
RTVSPropertyOp8
 70
     1
102
RTVSPropertyOp9
 70
     1
102
RTVSPropertyOp10
 70
     1
102
RTVSPropertyOp11
 70
     1
102
RTVSPropertyOp12
 70
     1
102
RTVSPropertyOp13
 70
     1
102
RTVSPropertyOp14
 70
     1
102
RTVSPropertyOp15
 70
     1
102
RTVSPropertyOp16
 70
     1
102
RTVSPropertyOp17
 70
     1
102
RTVSPropertyOp18
 70
     1
102
RTVSPropertyOp19
 70
     1
102
RTVSPropertyOp20
 70
     1
102
RTVSPropertyOp21
 70
     1
102
RTVSPropertyOp22
 70
     1
102
RTVSPropertyOp23
 70
     1
102
RTVSPropertyOp24
 70
     1
102
RTVSPropertyOp25
 70
     1
102
RTVSPropertyOp26
 70
     1
102
RTVSPropertyOp27
 70
     1
102
RTVSPropertyOp28
 70
     1
102
RTVSPropertyOp29
 70
     1
102
RTVSPropertyOp30
 70
     1
102
RTVSPropertyOp31
 70
     1
102
RTVSPropertyOp32
 70
     1
  0
XRECORD
  5
10367
102
{ACAD_REACTORS
330
10366
102
}
330
10366
100
AcDbXrecord
280
     1
102
RTVSPropertyOp0
 70
     1
102
RTVSPropertyOp1
 70
     1
102
RTVSPropertyOp2
 70
     1
102
RTVSPropertyOp3
 70
     1
102
RTVSPropertyOp4
 70
     1
102
RTVSPropertyOp5
 70
     1
102
RTVSPropertyOp6
 70
     1
102
RTVSPropertyOp7
 70
     1
102
RTVSPropertyOp8
 70
     1
102
RTVSPropertyOp9
 70
     1
102
RTVSPropertyOp10
 70
     1
102
RTVSPropertyOp11
 70
     1
102
RTVSPropertyOp12
 70
     1
102
RTVSPropertyOp13
 70
     1
102
RTVSPropertyOp14
 70
     1
102
RTVSPropertyOp15
 70
     1
102
RTVSPropertyOp16
 70
     1
102
RTVSPropertyOp17
 70
     1
102
RTVSPropertyOp18
 70
     1
102
RTVSPropertyOp19
 70
     1
102
RTVSPropertyOp20
 70
     1
102
RTVSPropertyOp21
 70
     1
102
RTVSPropertyOp22
 70
     1
102
RTVSPropertyOp23
 70
     1
102
RTVSPropertyOp24
 70
     1
102
RTVSPropertyOp25
 70
     1
102
RTVSPropertyOp26
 70
     1
102
RTVSPropertyOp27
 70
     1
102
RTVSPropertyOp28
 70
     1
102
RTVSPropertyOp29
 70
     1
102
RTVSPropertyOp30
 70
     1
102
RTVSPropertyOp31
 70
     1
102
RTVSPropertyOp32
 70
     1
  0
XRECORD
  5
10359
102
{ACAD_REACTORS
330
10358
102
}
330
10358
100
AcDbXrecord
280
     1
102
RTVSPropertyOp0
 70
     1
102
RTVSPropertyOp1
 70
     1
102
RTVSPropertyOp2
 70
     1
102
RTVSPropertyOp3
 70
     1
102
RTVSPropertyOp4
 70
     1
102
RTVSPropertyOp5
 70
     1
102
RTVSPropertyOp6
 70
     1
102
RTVSPropertyOp7
 70
     1
102
RTVSPropertyOp8
 70
     1
102
RTVSPropertyOp9
 70
     1
102
RTVSPropertyOp10
 70
     1
102
RTVSPropertyOp11
 70
     1
102
RTVSPropertyOp12
 70
     1
102
RTVSPropertyOp13
 70
     1
102
RTVSPropertyOp14
 70
     1
102
RTVSPropertyOp15
 70
     1
102
RTVSPropertyOp16
 70
     1
102
RTVSPropertyOp17
 70
     1
102
RTVSPropertyOp18
 70
     1
102
RTVSPropertyOp19
 70
     1
102
RTVSPropertyOp20
 70
     1
102
RTVSPropertyOp21
 70
     1
102
RTVSPropertyOp22
 70
     1
102
RTVSPropertyOp23
 70
     1
102
RTVSPropertyOp24
 70
     1
102
RTVSPropertyOp25
 70
     1
102
RTVSPropertyOp26
 70
     1
102
RTVSPropertyOp27
 70
     1
102
RTVSPropertyOp28
 70
     1
102
RTVSPropertyOp29
 70
     1
102
RTVSPropertyOp30
 70
     1
102
RTVSPropertyOp31
 70
     1
102
RTVSPropertyOp32
 70
     1
  0
XRECORD
  5
1035D
102
{ACAD_REACTORS
330
1035C
102
}
330
1035C
100
AcDbXrecord
280
     1
102
RTVSPropertyOp0
 70
     1
102
RTVSPropertyOp1
 70
     1
102
RTVSPropertyOp2
 70
     1
102
RTVSPropertyOp3
 70
     1
102
RTVSPropertyOp4
 70
     1
102
RTVSPropertyOp5
 70
     1
102
RTVSPropertyOp6
 70
     1
102
RTVSPropertyOp7
 70
     1
102
RTVSPropertyOp8
 70
     1
102
RTVSPropertyOp9
 70
     1
102
RTVSPropertyOp10
 70
     1
102
RTVSPropertyOp11
 70
     1
102
RTVSPropertyOp12
 70
     1
102
RTVSPropertyOp13
 70
     1
102
RTVSPropertyOp14
 70
     1
102
RTVSPropertyOp15
 70
     1
102
RTVSPropertyOp16
 70
     1
102
RTVSPropertyOp17
 70
     1
102
RTVSPropertyOp18
 70
     1
102
RTVSPropertyOp19
 70
     1
102
RTVSPropertyOp20
 70
     1
102
RTVSPropertyOp21
 70
     1
102
RTVSPropertyOp22
 70
     1
102
RTVSPropertyOp23
 70
     1
102
RTVSPropertyOp24
 70
     1
102
RTVSPropertyOp25
 70
     1
102
RTVSPropertyOp26
 70
     1
102
RTVSPropertyOp27
 70
     1
102
RTVSPropertyOp28
 70
     1
102
RTVSPropertyOp29
 70
     1
102
RTVSPropertyOp30
 70
     1
102
RTVSPropertyOp31
 70
     1
102
RTVSPropertyOp32
 70
     1
  0
XRECORD
  5
10377
102
{ACAD_REACTORS
330
10376
102
}
330
10376
100
AcDbXrecord
280
     1
102
RTVSPropertyOp0
 70
     0
102
RTVSPropertyOp1
 70
     0
102
RTVSPropertyOp2
 70
     0
102
RTVSPropertyOp3
 70
     0
102
RTVSPropertyOp4
 70
     0
102
RTVSPropertyOp5
 70
     0
102
RTVSPropertyOp6
 70
     0
102
RTVSPropertyOp7
 70
     0
102
RTVSPropertyOp8
 70
     0
102
RTVSPropertyOp9
 70
     0
102
RTVSPropertyOp10
 70
     0
102
RTVSPropertyOp11
 70
     0
102
RTVSPropertyOp12
 70
     0
102
RTVSPropertyOp13
 70
     0
102
RTVSPropertyOp14
 70
     2
102
RTVSPropertyOp15
 70
     0
102
RTVSPropertyOp16
 70
     0
102
RTVSPropertyOp17
 70
     0
102
RTVSPropertyOp18
 70
     0
102
RTVSPropertyOp19
 70
     0
102
RTVSPropertyOp20
 70
     0
102
RTVSPropertyOp21
 70
     0
102
RTVSPropertyOp22
 70
     0
102
RTVSPropertyOp23
 70
     0
102
RTVSPropertyOp24
 70
     0
102
RTVSPropertyOp25
 70
     0
102
RTVSPropertyOp26
 70
     0
102
RTVSPropertyOp27
 70
     0
102
RTVSPropertyOp28
 70
     0
102
RTVSPropertyOp29
 70
     0
102
RTVSPropertyOp30
 70
     0
102
RTVSPropertyOp31
 70
     0
102
RTVSPropertyOp32
 70
     0
  0
XRECORD
  5
10365
102
{ACAD_REACTORS
330
10364
102
}
330
10364
100
AcDbXrecord
280
     1
102
RTVSPropertyOp0
 70
     1
102
RTVSPropertyOp1
 70
     1
102
RTVSPropertyOp2
 70
     1
102
RTVSPropertyOp3
 70
     1
102
RTVSPropertyOp4
 70
     1
102
RTVSPropertyOp5
 70
     1
102
RTVSPropertyOp6
 70
     1
102
RTVSPropertyOp7
 70
     1
102
RTVSPropertyOp8
 70
     1
102
RTVSPropertyOp9
 70
     1
102
RTVSPropertyOp10
 70
     1
102
RTVSPropertyOp11
 70
     1
102
RTVSPropertyOp12
 70
     1
102
RTVSPropertyOp13
 70
     1
102
RTVSPropertyOp14
 70
     1
102
RTVSPropertyOp15
 70
     1
102
RTVSPropertyOp16
 70
     1
102
RTVSPropertyOp17
 70
     1
102
RTVSPropertyOp18
 70
     1
102
RTVSPropertyOp19
 70
     1
102
RTVSPropertyOp20
 70
     1
102
RTVSPropertyOp21
 70
     1
102
RTVSPropertyOp22
 70
     1
102
RTVSPropertyOp23
 70
     1
102
RTVSPropertyOp24
 70
     1
102
RTVSPropertyOp25
 70
     1
102
RTVSPropertyOp26
 70
     1
102
RTVSPropertyOp27
 70
     1
102
RTVSPropertyOp28
 70
     1
102
RTVSPropertyOp29
 70
     1
102
RTVSPropertyOp30
 70
     1
102
RTVSPropertyOp31
 70
     1
102
RTVSPropertyOp32
 70
     1
  0
XRECORD
  5
10349
102
{ACAD_REACTORS
330
10348
102
}
330
10348
100
AcDbXrecord
280
     1
102
RTVSPropertyOp0
 70
     1
102
RTVSPropertyOp1
 70
     1
102
RTVSPropertyOp2
 70
     1
102
RTVSPropertyOp3
 70
     1
102
RTVSPropertyOp4
 70
     1
102
RTVSPropertyOp5
 70
     1
102
RTVSPropertyOp6
 70
     1
102
RTVSPropertyOp7
 70
     1
102
RTVSPropertyOp8
 70
     1
102
RTVSPropertyOp9
 70
     1
102
RTVSPropertyOp10
 70
     1
102
RTVSPropertyOp11
 70
     1
102
RTVSPropertyOp12
 70
     1
102
RTVSPropertyOp13
 70
     1
102
RTVSPropertyOp14
 70
     1
102
RTVSPropertyOp15
 70
     1
102
RTVSPropertyOp16
 70
     1
102
RTVSPropertyOp17
 70
     1
102
RTVSPropertyOp18
 70
     1
102
RTVSPropertyOp19
 70
     1
102
RTVSPropertyOp20
 70
     1
102
RTVSPropertyOp21
 70
     1
102
RTVSPropertyOp22
 70
     1
102
RTVSPropertyOp23
 70
     1
102
RTVSPropertyOp24
 70
     1
102
RTVSPropertyOp25
 70
     1
102
RTVSPropertyOp26
 70
     1
102
RTVSPropertyOp27
 70
     1
102
RTVSPropertyOp28
 70
     1
102
RTVSPropertyOp29
 70
     1
102
RTVSPropertyOp30
 70
     1
102
RTVSPropertyOp31
 70
     1
102
RTVSPropertyOp32
 70
     1
  0
XRECORD
  5
1034B
102
{ACAD_REACTORS
330
1034A
102
}
330
1034A
100
AcDbXrecord
280
     1
102
RTVSPropertyOp0
 70
     1
102
RTVSPropertyOp1
 70
     1
102
RTVSPropertyOp2
 70
     1
102
RTVSPropertyOp3
 70
     1
102
RTVSPropertyOp4
 70
     1
102
RTVSPropertyOp5
 70
     1
102
RTVSPropertyOp6
 70
     1
102
RTVSPropertyOp7
 70
     1
102
RTVSPropertyOp8
 70
     1
102
RTVSPropertyOp9
 70
     1
102
RTVSPropertyOp10
 70
     1
102
RTVSPropertyOp11
 70
     1
102
RTVSPropertyOp12
 70
     1
102
RTVSPropertyOp13
 70
     1
102
RTVSPropertyOp14
 70
     1
102
RTVSPropertyOp15
 70
     1
102
RTVSPropertyOp16
 70
     1
102
RTVSPropertyOp17
 70
     1
102
RTVSPropertyOp18
 70
     1
102
RTVSPropertyOp19
 70
     1
102
RTVSPropertyOp20
 70
     1
102
RTVSPropertyOp21
 70
     1
102
RTVSPropertyOp22
 70
     1
102
RTVSPropertyOp23
 70
     1
102
RTVSPropertyOp24
 70
     1
102
RTVSPropertyOp25
 70
     1
102
RTVSPropertyOp26
 70
     1
102
RTVSPropertyOp27
 70
     1
102
RTVSPropertyOp28
 70
     1
102
RTVSPropertyOp29
 70
     1
102
RTVSPropertyOp30
 70
     1
102
RTVSPropertyOp31
 70
     1
102
RTVSPropertyOp32
 70
     1
  0
XRECORD
  5
1034D
102
{ACAD_REACTORS
330
1034C
102
}
330
1034C
100
AcDbXrecord
280
     1
102
RTVSPropertyOp0
 70
     1
102
RTVSPropertyOp1
 70
     1
102
RTVSPropertyOp2
 70
     1
102
RTVSPropertyOp3
 70
     1
102
RTVSPropertyOp4
 70
     1
102
RTVSPropertyOp5
 70
     1
102
RTVSPropertyOp6
 70
     1
102
RTVSPropertyOp7
 70
     1
102
RTVSPropertyOp8
 70
     1
102
RTVSPropertyOp9
 70
     1
102
RTVSPropertyOp10
 70
     1
102
RTVSPropertyOp11
 70
     1
102
RTVSPropertyOp12
 70
     1
102
RTVSPropertyOp13
 70
     1
102
RTVSPropertyOp14
 70
     1
102
RTVSPropertyOp15
 70
     1
102
RTVSPropertyOp16
 70
     1
102
RTVSPropertyOp17
 70
     1
102
RTVSPropertyOp18
 70
     1
102
RTVSPropertyOp19
 70
     1
102
RTVSPropertyOp20
 70
     1
102
RTVSPropertyOp21
 70
     1
102
RTVSPropertyOp22
 70
     1
102
RTVSPropertyOp23
 70
     1
102
RTVSPropertyOp24
 70
     1
102
RTVSPropertyOp25
 70
     1
102
RTVSPropertyOp26
 70
     1
102
RTVSPropertyOp27
 70
     1
102
RTVSPropertyOp28
 70
     1
102
RTVSPropertyOp29
 70
     1
102
RTVSPropertyOp30
 70
     1
102
RTVSPropertyOp31
 70
     1
102
RTVSPropertyOp32
 70
     1
  0
XRECORD
  5
1034F
102
{ACAD_REACTORS
330
1034E
102
}
330
1034E
100
AcDbXrecord
280
     1
102
RTVSPropertyOp0
 70
     1
102
RTVSPropertyOp1
 70
     1
102
RTVSPropertyOp2
 70
     1
102
RTVSPropertyOp3
 70
     1
102
RTVSPropertyOp4
 70
     1
102
RTVSPropertyOp5
 70
     1
102
RTVSPropertyOp6
 70
     1
102
RTVSPropertyOp7
 70
     1
102
RTVSPropertyOp8
 70
     1
102
RTVSPropertyOp9
 70
     1
102
RTVSPropertyOp10
 70
     1
102
RTVSPropertyOp11
 70
     1
102
RTVSPropertyOp12
 70
     1
102
RTVSPropertyOp13
 70
     1
102
RTVSPropertyOp14
 70
     1
102
RTVSPropertyOp15
 70
     1
102
RTVSPropertyOp16
 70
     1
102
RTVSPropertyOp17
 70
     1
102
RTVSPropertyOp18
 70
     1
102
RTVSPropertyOp19
 70
     1
102
RTVSPropertyOp20
 70
     1
102
RTVSPropertyOp21
 70
     1
102
RTVSPropertyOp22
 70
     1
102
RTVSPropertyOp23
 70
     1
102
RTVSPropertyOp24
 70
     1
102
RTVSPropertyOp25
 70
     1
102
RTVSPropertyOp26
 70
     1
102
RTVSPropertyOp27
 70
     1
102
RTVSPropertyOp28
 70
     1
102
RTVSPropertyOp29
 70
     1
102
RTVSPropertyOp30
 70
     1
102
RTVSPropertyOp31
 70
     1
102
RTVSPropertyOp32
 70
     1
  0
XRECORD
  5
10357
102
{ACAD_REACTORS
330
10356
102
}
330
10356
100
AcDbXrecord
280
     1
102
RTVSPropertyOp0
 70
     1
102
RTVSPropertyOp1
 70
     1
102
RTVSPropertyOp2
 70
     1
102
RTVSPropertyOp3
 70
     1
102
RTVSPropertyOp4
 70
     1
102
RTVSPropertyOp5
 70
     1
102
RTVSPropertyOp6
 70
     1
102
RTVSPropertyOp7
 70
     1
102
RTVSPropertyOp8
 70
     1
102
RTVSPropertyOp9
 70
     1
102
RTVSPropertyOp10
 70
     1
102
RTVSPropertyOp11
 70
     1
102
RTVSPropertyOp12
 70
     1
102
RTVSPropertyOp13
 70
     1
102
RTVSPropertyOp14
 70
     1
102
RTVSPropertyOp15
 70
     1
102
RTVSPropertyOp16
 70
     1
102
RTVSPropertyOp17
 70
     1
102
RTVSPropertyOp18
 70
     1
102
RTVSPropertyOp19
 70
     1
102
RTVSPropertyOp20
 70
     1
102
RTVSPropertyOp21
 70
     1
102
RTVSPropertyOp22
 70
     1
102
RTVSPropertyOp23
 70
     1
102
RTVSPropertyOp24
 70
     1
102
RTVSPropertyOp25
 70
     1
102
RTVSPropertyOp26
 70
     1
102
RTVSPropertyOp27
 70
     1
102
RTVSPropertyOp28
 70
     1
102
RTVSPropertyOp29
 70
     1
102
RTVSPropertyOp30
 70
     1
102
RTVSPropertyOp31
 70
     1
102
RTVSPropertyOp32
 70
     1
  0
XRECORD
  5
10373
102
{ACAD_REACTORS
330
10372
102
}
330
10372
100
AcDbXrecord
280
     1
102
RTVSPropertyOp0
 70
     0
102
RTVSPropertyOp1
 70
     0
102
RTVSPropertyOp2
 70
     0
102
RTVSPropertyOp3
 70
     0
102
RTVSPropertyOp4
 70
     0
102
RTVSPropertyOp5
 70
     0
102
RTVSPropertyOp6
 70
     0
102
RTVSPropertyOp7
 70
     0
102
RTVSPropertyOp8
 70
     0
102
RTVSPropertyOp9
 70
     0
102
RTVSPropertyOp10
 70
     0
102
RTVSPropertyOp11
 70
     0
102
RTVSPropertyOp12
 70
     0
102
RTVSPropertyOp13
 70
     0
102
RTVSPropertyOp14
 70
     2
102
RTVSPropertyOp15
 70
     0
102
RTVSPropertyOp16
 70
     0
102
RTVSPropertyOp17
 70
     0
102
RTVSPropertyOp18
 70
     0
102
RTVSPropertyOp19
 70
     0
102
RTVSPropertyOp20
 70
     0
102
RTVSPropertyOp21
 70
     0
102
RTVSPropertyOp22
 70
     0
102
RTVSPropertyOp23
 70
     0
102
RTVSPropertyOp24
 70
     0
102
RTVSPropertyOp25
 70
     0
102
RTVSPropertyOp26
 70
     0
102
RTVSPropertyOp27
 70
     0
102
RTVSPropertyOp28
 70
     0
102
RTVSPropertyOp29
 70
     0
102
RTVSPropertyOp30
 70
     0
102
RTVSPropertyOp31
 70
     0
102
RTVSPropertyOp32
 70
     0
  0
XRECORD
  5
10363
102
{ACAD_REACTORS
330
10362
102
}
330
10362
100
AcDbXrecord
280
     1
102
RTVSPropertyOp0
 70
     1
102
RTVSPropertyOp1
 70
     1
102
RTVSPropertyOp2
 70
     1
102
RTVSPropertyOp3
 70
     1
102
RTVSPropertyOp4
 70
     1
102
RTVSPropertyOp5
 70
     1
102
RTVSPropertyOp6
 70
     1
102
RTVSPropertyOp7
 70
     1
102
RTVSPropertyOp8
 70
     1
102
RTVSPropertyOp9
 70
     1
102
RTVSPropertyOp10
 70
     1
102
RTVSPropertyOp11
 70
     1
102
RTVSPropertyOp12
 70
     1
102
RTVSPropertyOp13
 70
     1
102
RTVSPropertyOp14
 70
     1
102
RTVSPropertyOp15
 70
     1
102
RTVSPropertyOp16
 70
     1
102
RTVSPropertyOp17
 70
     1
102
RTVSPropertyOp18
 70
     1
102
RTVSPropertyOp19
 70
     1
102
RTVSPropertyOp20
 70
     1
102
RTVSPropertyOp21
 70
     1
102
RTVSPropertyOp22
 70
     1
102
RTVSPropertyOp23
 70
     1
102
RTVSPropertyOp24
 70
     1
102
RTVSPropertyOp25
 70
     1
102
RTVSPropertyOp26
 70
     1
102
RTVSPropertyOp27
 70
     1
102
RTVSPropertyOp28
 70
     1
102
RTVSPropertyOp29
 70
     1
102
RTVSPropertyOp30
 70
     1
102
RTVSPropertyOp31
 70
     1
102
RTVSPropertyOp32
 70
     1
  0
XRECORD
  5
10375
102
{ACAD_REACTORS
330
10374
102
}
330
10374
100
AcDbXrecord
280
     1
102
RTVSPropertyOp0
 70
     0
102
RTVSPropertyOp1
 70
     0
102
RTVSPropertyOp2
 70
     0
102
RTVSPropertyOp3
 70
     0
102
RTVSPropertyOp4
 70
     0
102
RTVSPropertyOp5
 70
     0
102
RTVSPropertyOp6
 70
     0
102
RTVSPropertyOp7
 70
     0
102
RTVSPropertyOp8
 70
     0
102
RTVSPropertyOp9
 70
     0
102
RTVSPropertyOp10
 70
     0
102
RTVSPropertyOp11
 70
     0
102
RTVSPropertyOp12
 70
     0
102
RTVSPropertyOp13
 70
     0
102
RTVSPropertyOp14
 70
     2
102
RTVSPropertyOp15
 70
     0
102
RTVSPropertyOp16
 70
     0
102
RTVSPropertyOp17
 70
     0
102
RTVSPropertyOp18
 70
     0
102
RTVSPropertyOp19
 70
     0
102
RTVSPropertyOp20
 70
     0
102
RTVSPropertyOp21
 70
     0
102
RTVSPropertyOp22
 70
     0
102
RTVSPropertyOp23
 70
     0
102
RTVSPropertyOp24
 70
     0
102
RTVSPropertyOp25
 70
     0
102
RTVSPropertyOp26
 70
     0
102
RTVSPropertyOp27
 70
     0
102
RTVSPropertyOp28
 70
     0
102
RTVSPropertyOp29
 70
     0
102
RTVSPropertyOp30
 70
     0
102
RTVSPropertyOp31
 70
     0
102
RTVSPropertyOp32
 70
     0
  0
XRECORD
  5
1035B
102
{ACAD_REACTORS
330
1035A
102
}
330
1035A
100
AcDbXrecord
280
     1
102
RTVSPropertyOp0
 70
     1
102
RTVSPropertyOp1
 70
     1
102
RTVSPropertyOp2
 70
     1
102
RTVSPropertyOp3
 70
     1
102
RTVSPropertyOp4
 70
     1
102
RTVSPropertyOp5
 70
     1
102
RTVSPropertyOp6
 70
     1
102
RTVSPropertyOp7
 70
     1
102
RTVSPropertyOp8
 70
     1
102
RTVSPropertyOp9
 70
     1
102
RTVSPropertyOp10
 70
     1
102
RTVSPropertyOp11
 70
     1
102
RTVSPropertyOp12
 70
     1
102
RTVSPropertyOp13
 70
     1
102
RTVSPropertyOp14
 70
     1
102
RTVSPropertyOp15
 70
     1
102
RTVSPropertyOp16
 70
     1
102
RTVSPropertyOp17
 70
     1
102
RTVSPropertyOp18
 70
     1
102
RTVSPropertyOp19
 70
     1
102
RTVSPropertyOp20
 70
     1
102
RTVSPropertyOp21
 70
     1
102
RTVSPropertyOp22
 70
     1
102
RTVSPropertyOp23
 70
     1
102
RTVSPropertyOp24
 70
     1
102
RTVSPropertyOp25
 70
     1
102
RTVSPropertyOp26
 70
     1
102
RTVSPropertyOp27
 70
     1
102
RTVSPropertyOp28
 70
     1
102
RTVSPropertyOp29
 70
     1
102
RTVSPropertyOp30
 70
     1
102
RTVSPropertyOp31
 70
     1
102
RTVSPropertyOp32
 70
     1
  0
XRECORD
  5
10371
102
{ACAD_REACTORS
330
10370
102
}
330
10370
100
AcDbXrecord
280
     1
102
RTVSPropertyOp0
 70
     1
102
RTVSPropertyOp1
 70
     1
102
RTVSPropertyOp2
 70
     1
102
RTVSPropertyOp3
 70
     1
102
RTVSPropertyOp4
 70
     1
102
RTVSPropertyOp5
 70
     1
102
RTVSPropertyOp6
 70
     1
102
RTVSPropertyOp7
 70
     1
102
RTVSPropertyOp8
 70
     1
102
RTVSPropertyOp9
 70
     1
102
RTVSPropertyOp10
 70
     1
102
RTVSPropertyOp11
 70
     1
102
RTVSPropertyOp12
 70
     1
102
RTVSPropertyOp13
 70
     1
102
RTVSPropertyOp14
 70
     1
102
RTVSPropertyOp15
 70
     1
102
RTVSPropertyOp16
 70
     1
102
RTVSPropertyOp17
 70
     1
102
RTVSPropertyOp18
 70
     1
102
RTVSPropertyOp19
 70
     1
102
RTVSPropertyOp20
 70
     1
102
RTVSPropertyOp21
 70
     1
102
RTVSPropertyOp22
 70
     1
102
RTVSPropertyOp23
 70
     1
102
RTVSPropertyOp24
 70
     1
102
RTVSPropertyOp25
 70
     1
102
RTVSPropertyOp26
 70
     1
102
RTVSPropertyOp27
 70
     1
102
RTVSPropertyOp28
 70
     1
102
RTVSPropertyOp29
 70
     1
102
RTVSPropertyOp30
 70
     1
102
RTVSPropertyOp31
 70
     1
102
RTVSPropertyOp32
 70
     1
  0
XRECORD
  5
1036F
102
{ACAD_REACTORS
330
1036E
102
}
330
1036E
100
AcDbXrecord
280
     1
102
RTVSPropertyOp0
 70
     1
102
RTVSPropertyOp1
 70
     1
102
RTVSPropertyOp2
 70
     1
102
RTVSPropertyOp3
 70
     1
102
RTVSPropertyOp4
 70
     1
102
RTVSPropertyOp5
 70
     1
102
RTVSPropertyOp6
 70
     1
102
RTVSPropertyOp7
 70
     1
102
RTVSPropertyOp8
 70
     1
102
RTVSPropertyOp9
 70
     1
102
RTVSPropertyOp10
 70
     1
102
RTVSPropertyOp11
 70
     1
102
RTVSPropertyOp12
 70
     1
102
RTVSPropertyOp13
 70
     1
102
RTVSPropertyOp14
 70
     1
102
RTVSPropertyOp15
 70
     1
102
RTVSPropertyOp16
 70
     1
102
RTVSPropertyOp17
 70
     1
102
RTVSPropertyOp18
 70
     1
102
RTVSPropertyOp19
 70
     1
102
RTVSPropertyOp20
 70
     1
102
RTVSPropertyOp21
 70
     1
102
RTVSPropertyOp22
 70
     1
102
RTVSPropertyOp23
 70
     1
102
RTVSPropertyOp24
 70
     1
102
RTVSPropertyOp25
 70
     1
102
RTVSPropertyOp26
 70
     1
102
RTVSPropertyOp27
 70
     1
102
RTVSPropertyOp28
 70
     1
102
RTVSPropertyOp29
 70
     1
102
RTVSPropertyOp30
 70
     1
102
RTVSPropertyOp31
 70
     1
102
RTVSPropertyOp32
 70
     1
  0
XRECORD
  5
10369
102
{ACAD_REACTORS
330
10368
102
}
330
10368
100
AcDbXrecord
280
     1
102
RTVSPropertyOp0
 70
     1
102
RTVSPropertyOp1
 70
     1
102
RTVSPropertyOp2
 70
     1
102
RTVSPropertyOp3
 70
     1
102
RTVSPropertyOp4
 70
     1
102
RTVSPropertyOp5
 70
     1
102
RTVSPropertyOp6
 70
     1
102
RTVSPropertyOp7
 70
     1
102
RTVSPropertyOp8
 70
     1
102
RTVSPropertyOp9
 70
     1
102
RTVSPropertyOp10
 70
     1
102
RTVSPropertyOp11
 70
     1
102
RTVSPropertyOp12
 70
     1
102
RTVSPropertyOp13
 70
     1
102
RTVSPropertyOp14
 70
     1
102
RTVSPropertyOp15
 70
     1
102
RTVSPropertyOp16
 70
     1
102
RTVSPropertyOp17
 70
     1
102
RTVSPropertyOp18
 70
     1
102
RTVSPropertyOp19
 70
     1
102
RTVSPropertyOp20
 70
     1
102
RTVSPropertyOp21
 70
     1
102
RTVSPropertyOp22
 70
     1
102
RTVSPropertyOp23
 70
     1
102
RTVSPropertyOp24
 70
     1
102
RTVSPropertyOp25
 70
     1
102
RTVSPropertyOp26
 70
     1
102
RTVSPropertyOp27
 70
     1
102
RTVSPropertyOp28
 70
     1
102
RTVSPropertyOp29
 70
     1
102
RTVSPropertyOp30
 70
     1
102
RTVSPropertyOp31
 70
     1
102
RTVSPropertyOp32
 70
     1
  0
XRECORD
  5
1036B
102
{ACAD_REACTORS
330
1036A
102
}
330
1036A
100
AcDbXrecord
280
     1
102
RTVSPropertyOp0
 70
     1
102
RTVSPropertyOp1
 70
     1
102
RTVSPropertyOp2
 70
     1
102
RTVSPropertyOp3
 70
     1
102
RTVSPropertyOp4
 70
     1
102
RTVSPropertyOp5
 70
     1
102
RTVSPropertyOp6
 70
     1
102
RTVSPropertyOp7
 70
     1
102
RTVSPropertyOp8
 70
     1
102
RTVSPropertyOp9
 70
     1
102
RTVSPropertyOp10
 70
     1
102
RTVSPropertyOp11
 70
     1
102
RTVSPropertyOp12
 70
     1
102
RTVSPropertyOp13
 70
     1
102
RTVSPropertyOp14
 70
     1
102
RTVSPropertyOp15
 70
     1
102
RTVSPropertyOp16
 70
     1
102
RTVSPropertyOp17
 70
     1
102
RTVSPropertyOp18
 70
     1
102
RTVSPropertyOp19
 70
     1
102
RTVSPropertyOp20
 70
     1
102
RTVSPropertyOp21
 70
     1
102
RTVSPropertyOp22
 70
     1
102
RTVSPropertyOp23
 70
     1
102
RTVSPropertyOp24
 70
     1
102
RTVSPropertyOp25
 70
     1
102
RTVSPropertyOp26
 70
     1
102
RTVSPropertyOp27
 70
     1
102
RTVSPropertyOp28
 70
     1
102
RTVSPropertyOp29
 70
     1
102
RTVSPropertyOp30
 70
     1
102
RTVSPropertyOp31
 70
     1
102
RTVSPropertyOp32
 70
     1
  0
XRECORD
  5
10361
102
{ACAD_REACTORS
330
10360
102
}
330
10360
100
AcDbXrecord
280
     1
102
RTVSPropertyOp0
 70
     1
102
RTVSPropertyOp1
 70
     1
102
RTVSPropertyOp2
 70
     1
102
RTVSPropertyOp3
 70
     1
102
RTVSPropertyOp4
 70
     1
102
RTVSPropertyOp5
 70
     1
102
RTVSPropertyOp6
 70
     1
102
RTVSPropertyOp7
 70
     1
102
RTVSPropertyOp8
 70
     1
102
RTVSPropertyOp9
 70
     1
102
RTVSPropertyOp10
 70
     1
102
RTVSPropertyOp11
 70
     1
102
RTVSPropertyOp12
 70
     1
102
RTVSPropertyOp13
 70
     1
102
RTVSPropertyOp14
 70
     1
102
RTVSPropertyOp15
 70
     1
102
RTVSPropertyOp16
 70
     1
102
RTVSPropertyOp17
 70
     1
102
RTVSPropertyOp18
 70
     1
102
RTVSPropertyOp19
 70
     1
102
RTVSPropertyOp20
 70
     1
102
RTVSPropertyOp21
 70
     1
102
RTVSPropertyOp22
 70
     1
102
RTVSPropertyOp23
 70
     1
102
RTVSPropertyOp24
 70
     1
102
RTVSPropertyOp25
 70
     1
102
RTVSPropertyOp26
 70
     1
102
RTVSPropertyOp27
 70
     1
102
RTVSPropertyOp28
 70
     1
102
RTVSPropertyOp29
 70
     1
102
RTVSPropertyOp30
 70
     1
102
RTVSPropertyOp31
 70
     1
102
RTVSPropertyOp32
 70
     1
  0
XRECORD
  5
10355
102
{ACAD_REACTORS
330
10354
102
}
330
10354
100
AcDbXrecord
280
     1
102
RTVSPropertyOp0
 70
     1
102
RTVSPropertyOp1
 70
     1
102
RTVSPropertyOp2
 70
     1
102
RTVSPropertyOp3
 70
     1
102
RTVSPropertyOp4
 70
     1
102
RTVSPropertyOp5
 70
     1
102
RTVSPropertyOp6
 70
     1
102
RTVSPropertyOp7
 70
     1
102
RTVSPropertyOp8
 70
     1
102
RTVSPropertyOp9
 70
     1
102
RTVSPropertyOp10
 70
     1
102
RTVSPropertyOp11
 70
     1
102
RTVSPropertyOp12
 70
     1
102
RTVSPropertyOp13
 70
     1
102
RTVSPropertyOp14
 70
     1
102
RTVSPropertyOp15
 70
     1
102
RTVSPropertyOp16
 70
     1
102
RTVSPropertyOp17
 70
     1
102
RTVSPropertyOp18
 70
     1
102
RTVSPropertyOp19
 70
     1
102
RTVSPropertyOp20
 70
     1
102
RTVSPropertyOp21
 70
     1
102
RTVSPropertyOp22
 70
     1
102
RTVSPropertyOp23
 70
     1
102
RTVSPropertyOp24
 70
     1
102
RTVSPropertyOp25
 70
     1
102
RTVSPropertyOp26
 70
     1
102
RTVSPropertyOp27
 70
     1
102
RTVSPropertyOp28
 70
     1
102
RTVSPropertyOp29
 70
     1
102
RTVSPropertyOp30
 70
     1
102
RTVSPropertyOp31
 70
     1
102
RTVSPropertyOp32
 70
     1
  0
XRECORD
  5
1036D
102
{ACAD_REACTORS
330
1036C
102
}
330
1036C
100
AcDbXrecord
280
     1
102
RTVSPropertyOp0
 70
     1
102
RTVSPropertyOp1
 70
     1
102
RTVSPropertyOp2
 70
     1
102
RTVSPropertyOp3
 70
     1
102
RTVSPropertyOp4
 70
     1
102
RTVSPropertyOp5
 70
     1
102
RTVSPropertyOp6
 70
     1
102
RTVSPropertyOp7
 70
     1
102
RTVSPropertyOp8
 70
     1
102
RTVSPropertyOp9
 70
     1
102
RTVSPropertyOp10
 70
     1
102
RTVSPropertyOp11
 70
     1
102
RTVSPropertyOp12
 70
     1
102
RTVSPropertyOp13
 70
     1
102
RTVSPropertyOp14
 70
     1
102
RTVSPropertyOp15
 70
     1
102
RTVSPropertyOp16
 70
     1
102
RTVSPropertyOp17
 70
     1
102
RTVSPropertyOp18
 70
     1
102
RTVSPropertyOp19
 70
     1
102
RTVSPropertyOp20
 70
     1
102
RTVSPropertyOp21
 70
     1
102
RTVSPropertyOp22
 70
     1
102
RTVSPropertyOp23
 70
     1
102
RTVSPropertyOp24
 70
     1
102
RTVSPropertyOp25
 70
     1
102
RTVSPropertyOp26
 70
     1
102
RTVSPropertyOp27
 70
     1
102
RTVSPropertyOp28
 70
     1
102
RTVSPropertyOp29
 70
     1
102
RTVSPropertyOp30
 70
     1
102
RTVSPropertyOp31
 70
     1
102
RTVSPropertyOp32
 70
     1
  0
ENDSEC
  0
EOF
